<svg xmlns="http://www.w3.org/2000/svg">
<defs>
<font
       id="EmbeddedFont_1"
       horiz-adv-x="2048">
      <font-face
         font-family="StarSymbol embedded"
         units-per-em="2048"
         ascent="1879"
         descent="635"
         id="font-face7" />
      <missing-glyph
         horiz-adv-x="2048"
         id="missing-glyph9">
        <path
           style="fill:none;stroke:black;stroke-width:33"
           d="M 0,2048 L 2047,2048 2047,1 0,1 0,2048 Z"
           id="path11" />
      </missing-glyph>
      <glyph
         unicode="–"
         horiz-adv-x="1165"
         id="glyph13">
        <path
           d="M -4,459 L 1135,459 1135,606 -4,606 -4,459 Z"
           id="path15" />
      </glyph>
      <glyph
         unicode="●"
         horiz-adv-x="1404"
         id="glyph17">
        <path
           d="M 786,1473 C 987,1473 1152,1408 1281,1278 1410,1147 1475,982 1475,782 1475,578 1411,412 1283,286 1155,158 989,94 786,94 586,94 421,158 291,288 161,417 96,582 96,782 96,986 160,1152 289,1280 417,1408 583,1473 786,1473 Z"
           id="path19" />
      </glyph>
    </font>
  </defs>
  <defs
     id="defs21">
    <font
       id="EmbeddedFont_2"
       horiz-adv-x="2048">
      <font-face
         font-family="Nimbus Sans L embedded"
         units-per-em="2048"
         ascent="1958"
         descent="582"
         id="font-face24" />
      <missing-glyph
         horiz-adv-x="2048"
         id="missing-glyph26">
        <path
           style="fill:none;stroke:black;stroke-width:33"
           d="M 0,2048 L 2047,2048 2047,1 0,1 0,2048 Z"
           id="path28" />
      </missing-glyph>
      <glyph
         unicode=" "
         horiz-adv-x="847"
         id="glyph30">
        <path
           d=""
           id="path32" />
      </glyph>
      <glyph
         unicode="C"
         horiz-adv-x="1086"
         id="glyph34">
        <path
           d="M 1130,1028 C 1116,1142 1097,1200 1052,1275 966,1425 817,1509 636,1509 292,1509 73,1208 73,733 73,260 284,-38 616,-38 749,-38 874,12 964,108 1056,202 1101,309 1142,540 L 985,540 C 960,413 940,354 897,288 829,188 743,139 630,139 385,139 241,354 241,727 241,1103 391,1331 641,1331 724,1331 802,1302 860,1253 919,1200 946,1144 972,1028 L 1130,1028 Z"
           id="path36" />
      </glyph>
      <glyph
         unicode="E"
         horiz-adv-x="874"
         id="glyph38">
        <path
           d="M 1034,178 L 309,178 309,665 966,665 966,843 309,843 309,1292 1021,1292 1021,1470 145,1470 145,0 1034,0 1034,178 Z"
           id="path40" />
      </glyph>
      <glyph
         unicode="F"
         horiz-adv-x="822"
         id="glyph42">
        <path
           d="M 309,665 L 899,665 899,843 309,843 309,1292 978,1292 978,1470 145,1470 145,0 309,0 309,665 Z"
           id="path44" />
      </glyph>
      <glyph
         unicode="L"
         horiz-adv-x="795"
         id="glyph46">
        <path
           d="M 290,1470 L 126,1470 126,0 901,0 901,178 290,178 290,1470 Z"
           id="path48" />
      </glyph>
      <glyph
         unicode="N"
         horiz-adv-x="927"
         id="glyph50">
        <path
           d="M 927,276 L 319,1470 126,1470 126,0 284,0 284,1193 903,0 1085,0 1085,1470 927,1470 927,276 Z"
           id="path52" />
      </glyph>
      <glyph
         unicode="O"
         horiz-adv-x="1165"
         id="glyph54">
        <path
           d="M 661,1509 C 487,1509 348,1445 247,1323 131,1179 65,966 65,733 65,503 131,294 247,147 344,26 487,-38 653,-38 819,-38 962,26 1058,147 1175,294 1241,503 1241,733 1241,894 1206,1060 1144,1187 1040,1396 874,1509 661,1509 Z M 659,1331 C 905,1331 1073,1089 1073,735 1073,376 905,139 653,139 401,139 233,376 233,733 233,1097 399,1331 659,1331 Z"
           id="path56" />
      </glyph>
      <glyph
         unicode="S"
         horiz-adv-x="927"
         id="glyph58">
        <path
           d="M 1007,1040 C 997,1171 983,1232 946,1304 874,1435 735,1509 552,1509 407,1509 296,1464 223,1372 159,1290 122,1179 122,1060 122,874 208,755 378,708 L 626,638 C 825,581 882,526 882,385 882,223 768,131 573,131 438,131 337,182 282,274 249,329 237,378 235,475 L 81,475 C 83,317 106,233 169,145 262,16 380,-38 565,-38 860,-38 1040,129 1040,403 1040,612 946,749 765,798 L 421,894 C 325,921 280,980 280,1085 280,1245 380,1339 552,1339 665,1339 755,1294 806,1214 835,1165 847,1122 854,1040 L 1007,1040 Z"
           id="path60" />
      </glyph>
      <glyph
         unicode="T"
         horiz-adv-x="1006"
         id="glyph62">
        <path
           d="M 22,1292 L 432,1292 432,0 595,0 595,1292 1003,1292 1003,1470 22,1470 22,1292 Z"
           id="path64" />
      </glyph>
      <glyph
         unicode="a"
         horiz-adv-x="821"
         id="glyph66">
        <path
           d="M 239,745 C 260,894 317,952 446,952 579,952 649,890 649,774 649,696 626,659 571,651 L 327,614 C 157,587 61,468 61,282 61,94 172,-30 342,-30 466,-30 557,20 653,143 663,26 704,-20 804,-20 827,-20 843,-16 872,-6 882,-2 884,-2 890,0 L 890,131 C 860,124 851,122 839,122 808,122 792,145 792,186 L 792,802 C 792,989 665,1101 456,1101 319,1101 215,1052 157,960 122,903 110,851 104,745 L 239,745 Z M 645,370 C 645,235 520,118 372,118 272,118 215,184 215,299 215,405 268,456 403,479 571,507 614,518 645,546 L 645,370 Z"
           id="path68" />
      </glyph>
      <glyph
         unicode="c"
         horiz-adv-x="742"
         id="glyph70">
        <path
           d="M 800,710 C 774,972 663,1101 466,1101 212,1101 51,874 51,516 51,182 204,-30 444,-30 645,-30 765,106 800,378 L 657,378 C 626,210 555,126 442,126 292,126 208,272 208,530 208,790 299,942 452,942 569,942 632,872 657,710 L 800,710 Z"
           id="path72" />
      </glyph>
      <glyph
         unicode="d"
         horiz-adv-x="768"
         id="glyph74">
        <path
           d="M 837,1470 L 690,1470 690,909 C 620,1046 542,1101 421,1101 204,1101 59,884 59,561 59,202 210,-30 444,-30 563,-30 634,20 698,153 L 698,0 837,0 837,1470 Z M 452,942 C 604,942 688,788 688,507 688,368 663,276 610,208 569,157 509,126 446,126 299,126 212,282 212,550 212,813 292,942 452,942 Z"
           id="path76" />
      </glyph>
      <glyph
         unicode="e"
         horiz-adv-x="795"
         id="glyph78">
        <path
           d="M 706,335 C 692,215 593,126 475,126 389,126 319,165 276,239 241,299 229,356 225,477 L 866,477 C 860,688 841,788 790,894 722,1036 624,1101 483,1101 229,1101 67,874 67,516 67,178 221,-30 471,-30 673,-30 815,104 854,335 L 706,335 Z M 225,620 C 233,813 335,942 477,942 552,942 616,905 657,839 690,784 704,731 712,620 L 225,620 Z"
           id="path80" />
      </glyph>
      <glyph
         unicode="f"
         horiz-adv-x="425"
         id="glyph82">
        <path
           d="M 440,921 L 440,1071 292,1071 292,1204 C 292,1292 319,1329 378,1329 393,1329 415,1327 440,1325 L 440,1486 C 395,1490 385,1490 368,1490 223,1490 145,1409 145,1255 L 145,1071 22,1071 22,921 145,921 145,0 292,0 292,921 440,921 Z"
           id="path84" />
      </glyph>
      <glyph
         unicode="g"
         horiz-adv-x="768"
         id="glyph86">
        <path
           d="M 837,1071 L 698,1071 698,913 C 618,1052 548,1101 430,1101 212,1101 67,884 67,561 67,204 219,-30 450,-30 559,-30 632,14 690,118 L 690,75 C 690,-55 679,-122 651,-180 612,-262 542,-301 438,-301 325,-301 268,-251 241,-131 L 94,-131 C 116,-268 145,-329 215,-385 272,-428 346,-450 432,-450 585,-450 700,-391 765,-278 817,-190 837,-83 837,88 L 837,1071 Z M 460,942 C 612,942 696,788 696,505 696,270 606,126 454,126 307,126 221,282 221,550 221,813 301,942 460,942 Z"
           id="path88" />
      </glyph>
      <glyph
         unicode="h"
         horiz-adv-x="715"
         id="glyph90">
        <path
           d="M 256,1470 L 108,1470 108,0 256,0 256,583 C 256,811 346,942 505,942 626,942 677,870 677,700 L 677,0 825,0 825,729 C 825,964 714,1101 528,1101 411,1101 342,1056 256,923 L 256,1470 Z"
           id="path92" />
      </glyph>
      <glyph
         unicode="i"
         horiz-adv-x="160"
         id="glyph94">
        <path
           d="M 260,1071 L 112,1071 112,0 260,0 260,1071 Z M 260,1265 L 260,1470 112,1470 112,1265 260,1265 Z"
           id="path96" />
      </glyph>
      <glyph
         unicode="k"
         horiz-adv-x="715"
         id="glyph98">
        <path
           d="M 485,671 L 821,1071 634,1071 256,618 256,1470 112,1470 112,0 256,0 256,405 378,540 651,0 841,0 485,671 Z"
           id="path100" />
      </glyph>
      <glyph
         unicode="l"
         horiz-adv-x="160"
         id="glyph102">
        <path
           d="M 260,1470 L 112,1470 112,0 260,0 260,1470 Z"
           id="path104" />
      </glyph>
      <glyph
         unicode="m"
         horiz-adv-x="1165"
         id="glyph106">
        <path
           d="M 108,0 L 256,0 256,583 C 256,800 348,942 489,942 575,942 626,868 626,741 L 626,0 774,0 774,653 C 774,815 866,942 985,942 1093,942 1144,860 1144,692 L 1144,0 1292,0 1292,741 C 1292,964 1185,1101 1015,1101 909,1101 851,1064 751,927 696,1052 628,1101 520,1101 403,1101 323,1046 247,913 L 247,1071 108,1071 108,0 Z"
           id="path108" />
      </glyph>
      <glyph
         unicode="n"
         horiz-adv-x="715"
         id="glyph110">
        <path
           d="M 247,1071 L 108,1071 108,0 256,0 256,583 C 256,806 348,942 497,942 622,942 677,856 677,659 L 677,0 825,0 825,729 C 825,964 714,1101 528,1101 407,1101 323,1046 247,913 L 247,1071 Z"
           id="path112" />
      </glyph>
      <glyph
         unicode="o"
         horiz-adv-x="795"
         id="glyph114">
        <path
           d="M 473,1101 C 225,1101 59,874 59,536 59,202 227,-28 466,-28 708,-28 874,202 874,536 874,866 708,1101 473,1101 Z M 471,944 C 620,944 720,782 720,536 720,288 620,129 466,129 313,129 212,288 212,536 212,786 311,944 471,944 Z"
           id="path116" />
      </glyph>
      <glyph
         unicode="r"
         horiz-adv-x="451"
         id="glyph118">
        <path
           d="M 557,911 L 557,1095 C 542,1099 532,1101 518,1101 415,1101 346,1042 268,888 L 268,1071 129,1071 129,0 276,0 276,624 C 276,790 370,911 501,911 L 557,911 Z"
           id="path120" />
      </glyph>
      <glyph
         unicode="t"
         horiz-adv-x="424"
         id="glyph122">
        <path
           d="M 432,921 L 432,1071 288,1071 288,1370 141,1370 141,1071 22,1071 22,921 141,921 141,215 C 141,59 196,-14 313,-14 323,-14 331,-14 364,-8 376,-6 397,-4 430,0 L 430,141 378,141 C 313,141 288,165 288,225 L 288,921 432,921 Z"
           id="path124" />
      </glyph>
      <glyph
         unicode="u"
         horiz-adv-x="689"
         id="glyph126">
        <path
           d="M 821,0 L 821,1071 673,1071 673,481 C 673,264 579,126 432,126 319,126 262,206 262,360 L 262,1071 114,1071 114,301 C 114,92 223,-30 403,-30 534,-30 604,18 681,165 L 681,0 821,0 Z"
           id="path128" />
      </glyph>
      <glyph
         unicode="v"
         horiz-adv-x="821"
         id="glyph130">
        <path
           d="M 413,192 L 184,1071 14,1071 333,0 491,0 825,1071 663,1071 413,192 Z"
           id="path132" />
      </glyph>
      <glyph
         unicode="x"
         horiz-adv-x="821"
         id="glyph134">
        <path
           d="M 514,550 L 811,1071 630,1071 425,694 223,1071 32,1071 327,550 18,0 204,0 415,403 634,0 823,0 514,550 Z"
           id="path136" />
      </glyph>
    </font>
</defs>
</svg>
