<?xml version="1.0" encoding="UTF-8" standalone="no"?>
<svg
   xmlns:dc="http://purl.org/dc/elements/1.1/"
   xmlns:cc="http://creativecommons.org/ns#"
   xmlns:rdf="http://www.w3.org/1999/02/22-rdf-syntax-ns#"
   xmlns:svg="http://www.w3.org/2000/svg"
   xmlns="http://www.w3.org/2000/svg"
   xmlns:sodipodi="http://sodipodi.sourceforge.net/DTD/sodipodi-0.dtd"
   xmlns:inkscape="http://www.inkscape.org/namespaces/inkscape"
   version="1.2"
   width="190mm"
   height="130mm"
   viewBox="0 0 19000 13000"
   preserveAspectRatio="xMidYMid"
   xml:space="preserve"
   id="svg310"
   sodipodi:docname="異種金属接触腐食発生時の電流・電位関係の略図.svg"
   style="fill-rule:evenodd;stroke-width:28.22200012;stroke-linejoin:round"
   inkscape:version="0.92.4 (5da689c313, 2019-01-14)"><metadata
   id="metadata314"><rdf:RDF><cc:Work
       rdf:about=""><dc:format>image/svg+xml</dc:format><dc:type
         rdf:resource="http://purl.org/dc/dcmitype/StillImage" /><dc:title></dc:title></cc:Work></rdf:RDF></metadata><sodipodi:namedview
   pagecolor="#ffffff"
   bordercolor="#666666"
   borderopacity="1"
   objecttolerance="10"
   gridtolerance="10"
   guidetolerance="10"
   inkscape:pageopacity="0"
   inkscape:pageshadow="2"
   inkscape:window-width="1920"
   inkscape:window-height="1137"
   id="namedview312"
   showgrid="false"
   inkscape:zoom="1.0388924"
   inkscape:cx="261.80154"
   inkscape:cy="333.9679"
   inkscape:window-x="-8"
   inkscape:window-y="-8"
   inkscape:window-maximized="1"
   inkscape:current-layer="svg310" />
 <defs
   id="defs79">
  <font
   id="EmbeddedFont_1"
   horiz-adv-x="2048"
   horiz-origin-x="0"
   horiz-origin-y="0"
   vert-origin-x="45"
   vert-origin-y="90"
   vert-adv-y="90">
   <font-face
   font-family="メイリオ embedded"
   units-per-em="2048"
   font-weight="normal"
   font-style="normal"
   ascent="2170"
   descent="900"
   id="font-face2" />
   <missing-glyph
   horiz-adv-x="2048"
   d="M 0,0 L 2047,0 2047,2047 0,2047 0,0 Z"
   id="missing-glyph4" />
   <glyph
   unicode="食"
   horiz-adv-x="1933"
   d="M 164,-112 L 141,11 C 208,15 297,22 408,31 L 408,1168 C 297,1116 189,1075 84,1045 L 30,1152 C 207,1200 379,1278 547,1386 715,1494 840,1598 922,1697 L 1102,1697 C 1188,1597 1322,1498 1503,1401 1684,1303 1849,1234 1996,1194 L 1920,1072 C 1827,1105 1732,1144 1636,1189 L 1636,504 1105,504 C 1176,415 1257,338 1348,273 1515,339 1671,417 1816,506 L 1922,404 C 1801,336 1650,266 1469,195 1611,113 1784,49 1987,3 L 1916,-122 C 1679,-64 1483,18 1328,125 1173,232 1042,358 936,504 L 556,504 556,45 C 877,75 1086,99 1183,116 L 1183,-5 C 1122,-16 970,-34 725,-59 480,-85 293,-103 164,-112 Z M 481,1204 L 953,1204 953,1373 1104,1373 1104,1204 1606,1204 C 1351,1329 1156,1459 1023,1594 896,1454 715,1324 481,1204 Z M 556,909 L 1486,909 1486,1093 556,1093 556,909 Z M 1486,803 L 556,803 556,617 1486,617 1486,803 Z"
   id="glyph6" />
   <glyph
   unicode="電"
   horiz-adv-x="1879"
   d="M 1750,973 L 1750,1296 1057,1296 1057,885 904,885 904,1296 244,1296 244,973 106,973 106,1399 904,1399 904,1528 234,1528 234,1635 1738,1635 1740,1528 1057,1528 1057,1399 1892,1399 1892,973 1750,973 Z M 386,1104 L 386,1190 752,1190 752,1104 386,1104 Z M 1211,1104 L 1211,1190 1602,1190 1602,1104 1211,1104 Z M 386,914 L 386,1000 752,1000 752,914 386,914 Z M 1211,914 L 1211,1000 1602,1000 1602,914 1211,914 Z M 372,198 L 372,112 230,112 230,805 1755,805 1755,198 1059,198 1059,110 C 1059,85 1066,66 1079,52 1092,38 1112,29 1137,26 1162,23 1202,20 1257,17 1312,14 1368,12 1425,12 1492,12 1562,14 1636,18 1709,22 1756,25 1775,28 1794,30 1810,37 1825,48 1839,59 1850,76 1857,98 1864,120 1869,189 1872,306 L 2003,287 2003,64 C 2003,36 1997,11 1984,-10 1971,-31 1953,-48 1932,-61 1911,-74 1889,-84 1866,-89 1843,-94 1779,-98 1674,-101 1569,-104 1471,-106 1381,-106 1212,-106 1102,-102 1049,-94 996,-87 959,-69 936,-42 913,-15 902,22 902,70 L 902,198 372,198 Z M 378,548 L 902,548 902,705 378,705 378,548 Z M 1057,548 L 1606,548 1606,705 1057,705 1057,548 Z M 1606,452 L 1057,452 1057,300 1606,300 1606,452 Z M 902,452 L 378,452 378,300 902,300 902,452 Z"
   id="glyph8" />
   <glyph
   unicode="金"
   horiz-adv-x="1959"
   d="M 1343,55 C 1382,128 1439,266 1515,468 L 1680,428 C 1638,341 1576,216 1495,55 L 1891,55 1891,-67 145,-67 145,55 520,55 C 461,233 413,357 378,428 L 531,468 685,55 930,55 930,591 224,591 224,715 930,715 930,1011 531,1011 531,1126 C 387,1025 245,943 105,878 L 32,984 C 162,1038 324,1140 519,1290 714,1440 846,1575 915,1694 L 1126,1694 C 1211,1575 1337,1451 1502,1324 1667,1196 1839,1095 2020,1022 L 1935,901 C 1784,963 1618,1063 1437,1200 1256,1337 1120,1465 1030,1586 905,1425 739,1273 534,1128 L 1517,1128 1517,1011 1085,1011 1085,715 1822,715 1822,591 1085,591 1085,55 1343,55 Z"
   id="glyph10" />
   <glyph
   unicode="貴"
   horiz-adv-x="1879"
   d="M 76,1074 L 76,1183 945,1183 945,1298 314,1298 314,1628 945,1628 945,1722 1093,1722 1093,1628 1728,1628 1728,1298 1093,1298 1093,1183 1958,1183 1958,1074 76,1074 Z M 1584,1534 L 1093,1534 1093,1394 1584,1394 1584,1534 Z M 945,1534 L 458,1534 458,1394 945,1394 945,1534 Z M 295,184 L 295,955 1768,955 1768,184 295,184 Z M 439,738 L 1619,738 1619,853 439,853 439,738 Z M 439,523 L 1619,523 1619,644 439,644 439,523 Z M 1619,427 L 439,427 439,297 1619,297 1619,427 Z M 1876,-123 C 1577,-65 1366,-6 1241,55 L 1333,157 C 1509,88 1715,35 1950,-2 L 1876,-123 Z M 145,-127 L 95,-12 C 178,1 281,24 402,59 523,94 614,126 673,155 L 776,59 C 703,22 603,-14 476,-51 348,-88 238,-114 145,-127 Z"
   id="glyph12" />
   <glyph
   unicode="触"
   horiz-adv-x="1985"
   d="M 868,385 L 342,385 C 315,177 248,3 143,-137 L 41,-68 C 161,107 221,325 221,588 L 221,1165 C 184,1123 142,1078 93,1031 L 14,1116 C 103,1203 182,1306 251,1425 319,1544 365,1639 388,1710 L 530,1689 C 521,1662 503,1618 476,1559 L 881,1559 912,1532 C 867,1426 809,1322 738,1219 L 1012,1219 1012,20 C 1012,-19 996,-52 965,-77 933,-103 899,-116 862,-116 L 620,-116 599,13 789,13 C 842,13 868,37 868,84 L 868,385 Z M 266,1219 L 604,1219 C 667,1326 708,1406 726,1457 L 426,1457 C 383,1376 329,1297 266,1219 Z M 868,872 L 868,1112 676,1112 676,872 868,872 Z M 551,1112 L 358,1112 358,872 551,872 551,1112 Z M 353,494 L 551,494 551,767 357,767 353,494 Z M 676,494 L 868,494 868,767 676,767 676,494 Z M 1101,-108 L 1074,20 C 1145,25 1274,39 1459,61 L 1459,608 1283,609 1283,556 1147,556 1147,1363 1457,1363 1457,1701 1609,1701 1609,1363 1933,1363 1933,607 1609,608 1609,79 C 1662,86 1732,95 1820,108 1813,139 1792,234 1757,391 L 1897,414 C 1960,188 1996,18 2006,-97 L 1864,-120 C 1859,-88 1852,-50 1843,-5 1586,-52 1338,-86 1101,-108 Z M 1787,1254 L 1603,1254 1603,719 1787,719 1787,1254 Z M 1463,1254 L 1287,1254 1287,719 1463,719 1463,1254 Z"
   id="glyph14" />
   <glyph
   unicode="腐"
   horiz-adv-x="1932"
   d="M 365,1453 L 365,997 C 365,764 342,552 295,359 248,166 190,18 120,-85 L 16,-14 C 151,235 218,547 218,924 L 218,1563 1014,1563 1014,1695 1171,1695 1171,1561 1967,1561 1967,1453 365,1453 Z M 671,836 L 671,1109 C 594,1049 530,1005 481,978 L 415,1054 C 484,1093 558,1147 639,1216 720,1285 779,1351 818,1413 L 943,1375 C 910,1326 864,1275 807,1222 L 807,836 671,836 Z M 1584,836 L 1392,836 1371,949 1528,949 C 1575,949 1599,971 1599,1014 L 1599,1194 960,1194 960,1288 1599,1288 1599,1386 1745,1386 1745,1288 1950,1288 1950,1194 1745,1194 1745,960 C 1745,924 1729,894 1697,871 1665,848 1627,836 1584,836 Z M 1208,937 C 1145,992 1082,1042 1020,1085 L 1110,1152 C 1176,1112 1242,1064 1309,1008 L 1208,937 Z M 1718,-120 L 1484,-120 1463,-1 1651,-1 C 1701,-1 1726,20 1726,61 L 1726,632 1251,632 C 1314,555 1442,500 1637,467 L 1593,377 C 1486,392 1396,419 1323,460 1250,501 1196,548 1163,601 1124,541 1063,490 980,447 896,404 801,377 694,366 L 665,452 C 851,473 978,533 1046,632 L 586,632 586,-122 440,-122 440,724 1075,724 1075,834 1217,834 1217,724 1875,724 1875,20 C 1875,-19 1860,-52 1830,-79 1800,-106 1763,-120 1718,-120 Z M 1210,389 C 1233,335 1281,288 1353,247 1425,206 1516,179 1626,164 L 1580,66 C 1489,75 1407,97 1332,134 1257,170 1201,215 1162,269 1081,152 924,80 690,51 L 665,143 C 788,159 889,190 968,236 1047,282 1087,343 1087,419 L 1087,435 1210,435 1210,389 Z"
   id="glyph16" />
   <glyph
   unicode="線"
   horiz-adv-x="2012"
   d="M 1298,-114 L 1095,-114 1080,17 1231,17 C 1281,17 1306,39 1306,84 L 1306,842 897,842 897,1555 1249,1555 1306,1726 1458,1695 1389,1555 1878,1555 1878,842 1461,842 1461,738 C 1488,661 1529,580 1586,493 1719,586 1819,667 1887,736 L 1993,646 C 1928,586 1814,504 1651,401 1760,257 1886,135 2029,34 L 1931,-70 C 1731,76 1574,264 1461,494 L 1461,32 C 1461,-11 1445,-46 1414,-73 1383,-100 1344,-114 1298,-114 Z M 1037,1248 L 1732,1248 1732,1442 1037,1442 1037,1248 Z M 1732,1141 L 1037,1141 1037,951 1732,951 1732,1141 Z M 358,-127 L 358,712 55,688 36,813 142,816 C 193,879 253,958 323,1054 290,1087 197,1179 42,1329 L 130,1417 167,1382 C 247,1496 309,1602 353,1699 L 487,1651 C 415,1528 337,1410 253,1298 L 396,1155 C 492,1292 561,1403 602,1486 L 738,1429 C 613,1232 465,1029 293,821 436,827 551,834 640,841 L 594,991 715,1024 C 754,904 786,795 813,698 L 690,665 C 687,678 681,702 670,739 619,733 562,728 500,723 L 500,-127 358,-127 Z M 769,-73 L 694,15 C 802,88 888,176 952,278 1015,380 1054,477 1068,569 L 846,569 846,677 1197,677 1229,646 C 1215,507 1165,368 1078,231 991,94 888,-8 769,-73 Z M 654,209 C 637,294 619,408 600,552 L 717,569 C 730,482 749,369 773,228 L 654,209 Z M 134,32 L 21,59 C 76,249 108,414 119,554 L 253,544 C 242,460 224,365 199,260 174,155 153,79 134,32 Z"
   id="glyph18" />
   <glyph
   unicode="独"
   horiz-adv-x="1933"
   d="M 732,-106 L 707,24 C 830,30 1016,47 1264,74 L 1264,613 966,613 966,540 815,540 815,1371 1264,1371 1264,1693 1415,1693 1415,1371 1881,1371 1881,613 1415,613 1415,91 1732,131 C 1669,266 1619,364 1582,427 L 1718,477 C 1746,430 1792,341 1856,211 1920,80 1963,-14 1985,-72 L 1843,-118 C 1830,-85 1810,-40 1784,17 1561,-19 1211,-60 732,-106 Z M 966,728 L 1264,728 1264,1252 966,1252 966,728 Z M 1415,728 L 1732,728 1732,1252 1415,1252 1415,728 Z M 149,327 L 67,406 C 232,577 369,760 476,953 457,1032 431,1108 400,1179 297,1044 205,943 124,876 L 40,968 C 137,1058 234,1173 333,1314 286,1399 226,1487 153,1578 L 264,1651 C 321,1584 372,1514 417,1441 474,1532 517,1616 546,1691 L 696,1647 C 657,1558 590,1444 493,1306 614,1067 675,817 675,556 675,323 649,152 598,43 546,-66 467,-120 360,-120 L 155,-120 134,15 301,15 C 343,15 379,25 409,46 439,66 462,97 478,139 494,180 505,229 511,286 517,343 521,424 523,529 L 523,557 C 523,631 518,704 509,776 424,625 304,476 149,327 Z"
   id="glyph20" />
   <glyph
   unicode="流"
   horiz-adv-x="1880"
   d="M 760,984 C 839,1124 901,1250 948,1363 L 565,1363 565,1488 1140,1488 1140,1701 1300,1701 1300,1488 1910,1488 1910,1363 1119,1363 C 1048,1219 982,1095 921,992 1220,1007 1455,1022 1624,1037 1571,1115 1523,1180 1482,1233 L 1614,1288 C 1702,1183 1801,1045 1912,876 L 1770,816 C 1749,849 1726,886 1699,926 1509,903 1139,877 590,847 L 565,976 C 596,977 661,979 760,984 Z M 379,1277 C 304,1357 210,1447 97,1547 L 197,1653 C 340,1532 437,1445 488,1392 L 379,1277 Z M 325,813 C 216,925 122,1014 43,1081 L 145,1187 C 228,1124 325,1039 436,930 L 325,813 Z M 1465,770 L 1614,770 1614,95 C 1614,46 1641,22 1695,22 1731,22 1755,25 1768,30 1781,35 1791,45 1798,58 1805,71 1811,99 1815,140 1819,181 1821,241 1821,320 L 1940,300 1940,57 C 1940,21 1932,-9 1916,-32 1899,-55 1876,-71 1847,-80 1818,-89 1773,-94 1712,-94 1659,-94 1616,-92 1581,-87 1546,-82 1518,-68 1497,-43 1476,-19 1465,14 1465,57 L 1465,770 Z M 1098,-91 L 1098,753 1246,753 1246,-91 1098,-91 Z M 538,-129 L 461,-43 C 522,1 573,55 616,120 658,185 687,248 703,311 718,374 726,448 726,533 L 726,747 876,747 876,565 C 876,396 848,257 792,148 736,39 651,-54 538,-129 Z M 208,-58 L 78,34 C 131,108 189,210 251,341 313,472 359,585 390,680 L 521,634 C 490,529 445,409 384,272 323,135 264,25 208,-58 Z"
   id="glyph22" />
   <glyph
   unicode="極"
   horiz-adv-x="2012"
   d="M 105,323 L 13,394 C 78,496 144,628 211,789 278,950 321,1083 342,1190 L 93,1190 93,1304 352,1304 352,1695 502,1695 502,1304 699,1304 699,1190 502,1190 502,968 C 582,871 645,806 692,772 L 640,646 C 601,684 555,736 502,801 L 502,-131 352,-131 352,799 C 291,635 209,476 105,323 Z M 999,143 L 981,262 1112,262 C 1153,262 1184,270 1205,286 1225,302 1241,335 1253,384 1265,433 1272,566 1275,782 L 1279,1229 983,1229 972,1244 1057,1532 690,1532 690,1641 2023,1641 2023,1532 1199,1532 1133,1327 1413,1327 1413,924 C 1413,724 1407,561 1396,434 1384,307 1362,230 1331,203 1299,175 1267,157 1236,150 1205,143 1126,140 999,143 Z M 1910,160 C 1846,240 1787,328 1733,425 1676,321 1611,228 1538,147 L 1442,222 C 1525,317 1599,432 1662,568 1583,747 1527,919 1495,1083 L 1607,1110 C 1635,981 1675,853 1727,727 1791,904 1823,1066 1823,1212 L 1495,1212 1495,1321 1969,1321 C 1966,1064 1911,813 1802,566 1863,449 1934,346 2013,256 L 1910,160 Z M 851,431 L 851,383 732,383 732,1077 1131,1077 1131,431 851,431 Z M 1014,985 L 851,985 851,527 1014,527 1014,985 Z M 636,-83 L 636,36 2027,36 2027,-83 636,-83 Z"
   id="glyph24" />
   <glyph
   unicode="曲"
   horiz-adv-x="1694"
   d="M 1720,1 L 330,1 330,-104 174,-104 174,1327 690,1327 690,1666 846,1666 846,1327 1187,1327 1187,1670 1344,1670 1344,1327 1876,1327 1876,-104 1720,-104 1720,1 Z M 690,751 L 690,1208 330,1208 330,751 690,751 Z M 846,1208 L 846,751 1187,751 1187,1208 846,1208 Z M 1720,751 L 1720,1208 1344,1208 1344,751 1720,751 Z M 330,120 L 690,120 690,630 330,630 330,120 Z M 846,120 L 1187,120 1187,630 846,630 846,120 Z M 1344,120 L 1720,120 1720,630 1344,630 1344,120 Z"
   id="glyph26" />
   <glyph
   unicode="時"
   horiz-adv-x="1800"
   d="M 1523,-112 L 1266,-112 1247,32 1458,32 C 1481,32 1502,40 1521,56 1539,71 1548,89 1548,109 L 1548,573 775,573 775,696 1548,696 1548,926 750,926 750,1049 1259,1049 1259,1327 819,1327 819,1452 1259,1452 1259,1701 1420,1701 1420,1452 1890,1452 1890,1327 1420,1327 1420,1049 1965,1049 1965,926 1709,926 1709,696 1911,696 1911,573 1709,573 1709,40 C 1709,-5 1691,-42 1654,-70 1617,-98 1574,-112 1523,-112 Z M 298,233 L 298,99 150,99 150,1590 677,1590 677,233 298,233 Z M 528,1471 L 298,1471 298,995 528,995 528,1471 Z M 298,880 L 298,352 528,352 528,880 298,880 Z M 1094,97 C 1043,167 957,278 835,429 L 954,508 C 1045,407 1135,299 1224,182 L 1094,97 Z"
   id="glyph28" />
   <glyph
   unicode="接"
   horiz-adv-x="1933"
   d="M 324,-112 L 84,-112 68,20 253,20 C 308,20 335,44 335,93 L 335,636 C 217,599 124,571 57,554 L 30,684 C 95,695 196,721 335,762 L 335,1177 97,1177 97,1298 335,1298 335,1693 485,1693 485,1298 673,1298 673,1177 485,1177 485,809 C 566,835 628,857 671,874 L 692,765 C 652,746 583,720 485,686 L 485,32 C 485,-13 470,-48 439,-73 408,-99 370,-112 324,-112 Z M 1029,1054 L 929,1390 794,1390 794,1507 1275,1507 1275,1691 1427,1691 1427,1507 1931,1507 1931,1390 1789,1390 1652,1054 1977,1054 1977,937 738,937 738,1054 1029,1054 Z M 1078,1390 L 1174,1054 1510,1054 1630,1390 1078,1390 Z M 1415,66 C 1242,-43 1005,-108 705,-129 L 675,-16 C 920,3 1113,51 1256,128 1117,180 1000,218 905,241 884,246 874,258 874,275 874,282 876,289 880,295 912,342 956,434 1012,571 L 707,571 707,694 1061,694 C 1089,767 1113,834 1133,895 L 1290,874 C 1279,841 1254,781 1217,694 L 1991,694 1991,571 1783,571 C 1736,406 1653,268 1534,157 1677,99 1809,43 1929,-12 L 1843,-127 C 1763,-81 1620,-17 1415,66 Z M 1393,213 C 1501,307 1579,426 1626,571 L 1163,571 C 1111,453 1075,374 1054,333 1119,312 1232,272 1393,213 Z"
   id="glyph30" />
   <glyph
   unicode="応"
   horiz-adv-x="1959"
   d="M 364,1352 L 364,957 C 364,720 343,517 301,350 258,183 194,35 109,-93 L 7,-18 C 146,210 216,523 216,922 L 216,1480 984,1480 984,1695 1147,1695 1147,1480 1958,1480 1958,1352 364,1352 Z M 1339,861 C 1252,935 1111,1039 915,1172 L 1009,1271 C 1179,1174 1323,1073 1442,968 L 1339,861 Z M 846,964 L 1005,964 1005,130 C 1005,96 1017,73 1042,62 1066,51 1132,45 1241,45 1302,45 1352,47 1390,52 1428,57 1454,63 1467,71 1480,78 1491,89 1500,103 1508,117 1514,142 1519,179 1524,215 1527,273 1530,354 L 1665,341 1665,78 C 1665,53 1660,30 1649,11 1638,-8 1623,-24 1606,-37 1589,-50 1570,-60 1550,-66 1529,-72 1485,-77 1418,-81 1350,-85 1287,-87 1229,-87 1062,-87 957,-74 913,-48 868,-22 846,25 846,92 L 846,964 Z M 1839,195 C 1786,386 1708,569 1607,744 L 1743,801 C 1785,732 1833,639 1887,520 1941,401 1976,309 1993,245 L 1839,195 Z M 544,11 L 404,61 C 467,199 515,394 548,646 L 688,629 C 683,544 666,436 637,307 607,178 576,79 544,11 Z"
   id="glyph32" />
   <glyph
   unicode="属"
   horiz-adv-x="1827"
   d="M 1836,1303 L 342,1303 342,952 C 342,740 320,534 277,334 234,133 186,-6 133,-84 L 25,-15 C 71,71 111,194 145,355 179,515 196,676 196,837 L 196,1637 1836,1637 1836,1303 Z M 1698,1399 L 1698,1537 342,1537 342,1399 1698,1399 Z M 1888,31 C 1888,-15 1872,-52 1840,-79 1808,-106 1767,-120 1717,-120 L 1479,-120 1460,-3 1660,-3 C 1717,-3 1746,20 1746,66 L 1746,400 1203,400 1203,210 C 1300,219 1375,228 1426,235 1416,262 1402,297 1385,338 L 1495,371 C 1521,308 1559,218 1610,102 L 1491,68 C 1487,77 1478,100 1464,136 1302,111 1057,86 729,60 L 704,173 C 797,178 918,186 1065,198 L 1065,400 580,400 580,-128 436,-128 436,497 1065,497 1065,622 541,622 541,960 1065,960 1065,1081 C 810,1073 620,1070 493,1073 L 480,1173 526,1173 C 761,1173 1002,1179 1251,1192 1499,1205 1665,1221 1750,1240 L 1807,1134 C 1696,1112 1496,1096 1209,1086 L 1209,960 1759,960 1759,622 1209,622 1209,497 1888,497 1888,31 Z M 1623,712 L 1623,868 1209,868 1209,712 1623,712 Z M 1065,712 L 1065,868 676,868 676,712 1065,712 Z"
   id="glyph34" />
   <glyph
   unicode="反"
   horiz-adv-x="1880"
   d="M 1148,234 C 936,77 703,-40 448,-117 L 384,-7 C 630,78 842,187 1021,322 802,491 641,724 537,1023 L 436,1023 436,994 C 436,542 334,181 131,-90 L 26,-15 C 84,64 141,190 196,363 251,535 279,727 279,938 L 279,1587 1884,1587 1884,1468 436,1468 436,1140 1689,1140 1739,1096 C 1694,953 1630,812 1546,673 1461,534 1367,418 1263,326 1454,197 1674,96 1925,23 L 1840,-109 C 1641,-49 1411,65 1148,234 Z M 1135,415 C 1229,501 1313,599 1386,710 1459,820 1510,924 1537,1023 L 687,1023 C 775,772 924,570 1135,415 Z"
   id="glyph36" />
   <glyph
   unicode="単"
   horiz-adv-x="1853"
   d="M 961,1352 C 934,1427 887,1532 819,1668 L 972,1710 C 1014,1631 1062,1527 1116,1396 L 961,1352 Z M 930,-131 L 930,189 84,189 84,318 930,318 930,508 230,508 230,1308 1464,1308 C 1501,1364 1574,1492 1682,1693 L 1847,1638 C 1775,1521 1701,1411 1626,1308 L 1803,1308 1803,508 1089,508 1089,318 1970,318 1970,189 1089,189 1089,-131 930,-131 Z M 930,962 L 930,1196 385,1196 385,962 930,962 Z M 1089,1196 L 1089,962 1649,962 1649,1196 1089,1196 Z M 930,621 L 930,855 385,855 385,621 930,621 Z M 1089,855 L 1089,621 1649,621 1649,855 1089,855 Z M 374,1323 C 338,1402 283,1502 209,1622 L 351,1676 C 438,1536 496,1436 525,1375 L 374,1323 Z"
   id="glyph38" />
   <glyph
   unicode="卑"
   horiz-adv-x="1906"
   d="M 403,362 C 491,463 563,559 619,652 L 226,652 226,1498 782,1498 C 828,1592 861,1669 880,1728 L 1047,1699 C 1025,1650 989,1583 940,1498 L 1824,1498 1824,652 1442,652 1442,362 1981,362 1981,239 1442,239 1442,-129 1281,-129 1281,239 76,239 76,362 403,362 Z M 940,1135 L 940,1383 381,1383 381,1135 940,1135 Z M 1093,1383 L 1093,1135 1667,1135 1667,1383 1093,1383 Z M 1667,1026 L 1093,1026 1093,769 1667,769 1667,1026 Z M 940,1026 L 381,1026 381,769 940,769 940,1026 Z M 796,652 C 731,552 659,455 579,362 L 1281,362 1281,652 796,652 Z"
   id="glyph40" />
   <glyph
   unicode="分"
   horiz-adv-x="1933"
   d="M 189,-126 L 128,-22 C 340,47 500,153 608,298 715,443 772,635 779,876 L 385,876 385,997 1658,997 C 1445,1195 1287,1409 1185,1639 L 1333,1683 C 1477,1386 1696,1134 1991,928 L 1874,814 C 1799,873 1729,932 1665,991 L 1665,527 C 1665,400 1656,295 1638,210 1620,125 1597,64 1569,26 1541,-13 1507,-42 1468,-62 1429,-82 1388,-94 1345,-99 1302,-104 1219,-106 1094,-106 L 1014,-106 989,34 1252,34 C 1328,34 1389,64 1436,125 1482,186 1505,319 1505,525 L 1505,876 941,876 C 928,583 854,358 719,200 584,42 407,-67 189,-126 Z M 128,826 L 42,924 C 169,1009 295,1123 421,1266 546,1409 634,1541 684,1664 L 842,1624 C 682,1305 444,1039 128,826 Z"
   id="glyph42" />
   <glyph
   unicode="位"
   horiz-adv-x="1985"
   d="M 354,-129 L 354,925 C 271,784 188,668 107,577 L 9,659 C 121,804 225,968 320,1151 415,1334 488,1519 539,1705 L 696,1676 C 649,1517 570,1331 459,1118 L 512,1118 512,-129 354,-129 Z M 655,1217 L 655,1348 1212,1348 1212,1699 1373,1699 1373,1348 1973,1348 1973,1217 655,1217 Z M 613,-79 L 613,57 1340,57 C 1384,176 1439,350 1504,581 1569,812 1614,995 1639,1131 L 1802,1102 C 1690,645 1588,296 1495,57 L 2004,57 2004,-79 613,-79 Z M 964,193 C 946,304 916,453 874,642 831,831 798,963 774,1039 L 918,1072 C 947,991 1011,709 1110,226 L 964,193 Z"
   id="glyph44" />
   <glyph
   unicode="ー"
   horiz-adv-x="1642"
   d="M 1842,662 L 188,662 188,810 1842,810 1842,662 Z"
   id="glyph46" />
   <glyph
   unicode="ノ"
   horiz-adv-x="1482"
   d="M 1724,1544 C 1674,1084 1525,719 1276,449 1027,178 694,5 276,-70 L 219,78 C 498,131 734,226 927,365 1120,504 1268,682 1371,900 1474,1118 1531,1336 1544,1554 L 1724,1544 Z"
   id="glyph48" />
   <glyph
   unicode="ド"
   horiz-adv-x="1298"
   d="M 1903,622 L 1798,483 C 1659,576 1494,667 1301,756 1108,845 937,913 786,958 L 786,-103 608,-103 608,1648 788,1648 788,1112 C 1183,993 1555,830 1903,622 Z M 1810,1319 L 1696,1272 C 1653,1373 1605,1465 1552,1548 L 1657,1597 C 1710,1516 1761,1423 1810,1319 Z M 1520,1257 L 1405,1206 C 1356,1317 1308,1410 1260,1487 L 1368,1536 C 1427,1445 1477,1352 1520,1257 Z"
   id="glyph50" />
   <glyph
   unicode="ア"
   horiz-adv-x="1826"
   d="M 1999,1472 C 1988,1430 1952,1351 1893,1236 1833,1120 1742,1004 1619,887 1496,770 1390,686 1300,637 L 1210,745 C 1345,832 1464,938 1569,1065 1673,1192 1741,1296 1772,1378 L 162,1378 162,1519 1948,1519 1999,1472 Z M 1059,1194 C 1059,955 1046,769 1019,636 992,503 939,383 860,277 781,170 682,85 561,21 440,-43 341,-82 262,-96 L 201,35 C 448,105 622,213 723,360 824,506 877,692 883,917 L 885,1194 1059,1194 Z"
   id="glyph52" />
   <glyph
   unicode="る"
   horiz-adv-x="1668"
   d="M 1298,73 C 1548,133 1673,262 1673,459 1673,581 1627,675 1535,742 1443,809 1320,842 1167,842 1062,842 959,829 859,802 758,775 643,721 513,639 382,557 291,494 240,451 L 166,574 C 572,836 969,1112 1356,1401 L 344,1397 344,1530 1565,1530 1635,1428 930,940 938,928 C 1019,953 1100,965 1181,965 1372,965 1530,921 1653,833 1776,745 1837,623 1837,468 1837,286 1762,147 1611,52 1460,-44 1258,-92 1005,-92 657,-92 483,4 483,195 483,270 519,334 591,385 663,436 742,462 828,462 949,462 1052,428 1138,361 1224,294 1277,198 1298,73 Z M 1151,47 C 1112,238 1008,334 839,334 785,334 737,321 694,294 651,267 629,232 629,188 629,86 747,35 983,35 1034,35 1090,39 1151,47 Z"
   id="glyph54" />
   <glyph
   unicode="の"
   horiz-adv-x="1853"
   d="M 1068,-41 L 1029,94 C 1244,113 1427,176 1580,281 1732,386 1808,544 1808,753 1808,940 1747,1084 1624,1186 1501,1288 1329,1342 1109,1348 1102,989 1037,690 916,450 795,210 643,90 460,90 347,90 258,138 193,235 128,331 95,448 95,587 95,816 194,1021 391,1204 588,1386 822,1477 1092,1477 1346,1477 1555,1414 1720,1287 1885,1160 1967,986 1967,766 1967,515 1884,324 1718,191 1552,58 1335,-19 1068,-41 Z M 952,1335 C 759,1306 592,1218 453,1073 314,927 244,762 244,579 244,482 264,399 305,332 346,264 402,230 475,230 600,230 708,347 801,580 894,813 944,1064 952,1335 Z"
   id="glyph56" />
   <glyph
   unicode="に"
   horiz-adv-x="1589"
   d="M 496,-20 L 353,-53 C 284,166 250,404 250,661 250,941 296,1243 387,1567 L 541,1540 C 449,1237 403,941 403,653 403,416 434,192 496,-20 Z M 1850,1301 C 1744,1303 1644,1304 1550,1304 1412,1304 1162,1295 801,1276 801,1306 799,1351 795,1411 1138,1431 1417,1441 1632,1441 1739,1441 1810,1440 1845,1438 L 1845,1429 C 1845,1398 1847,1356 1850,1301 Z M 1862,29 C 1723,14 1586,7 1453,7 1268,7 1129,18 1038,40 946,61 876,97 829,147 782,197 758,261 758,340 758,455 808,576 908,703 L 1024,641 C 942,551 901,454 901,349 901,297 923,255 968,223 1012,191 1071,170 1146,160 1220,149 1325,144 1462,144 1601,144 1734,152 1862,168 L 1862,29 Z"
   id="glyph58" />
   <glyph
   unicode="な"
   horiz-adv-x="1853"
   d="M 678,1591 C 673,1486 665,1389 653,1298 L 1098,1298 1098,1165 633,1165 C 564,765 423,425 209,145 L 92,231 C 281,487 409,798 475,1165 L 148,1165 148,1298 496,1298 C 509,1395 517,1494 520,1593 L 678,1591 Z M 1962,1034 L 1839,936 C 1716,1092 1545,1252 1327,1417 L 1417,1516 C 1604,1407 1786,1246 1962,1034 Z M 1958,168 L 1878,41 C 1738,154 1614,237 1506,290 L 1506,195 C 1506,-1 1362,-99 1074,-99 955,-99 854,-74 771,-23 687,28 645,98 645,187 645,285 688,362 773,419 858,476 961,504 1084,504 1179,504 1267,496 1348,480 L 1348,1022 1506,1022 1506,433 C 1639,382 1789,294 1958,168 Z M 1352,348 C 1263,371 1174,383 1084,383 1006,383 938,367 879,335 820,302 791,258 791,201 791,88 892,31 1094,31 1266,31 1352,87 1352,199 L 1352,348 Z"
   id="glyph60" />
   <glyph
   unicode="け"
   horiz-adv-x="1747"
   d="M 1073,-88 L 1010,29 C 1156,84 1263,164 1331,268 1399,372 1433,511 1433,684 L 1433,1049 766,1049 766,1184 1433,1184 1433,1587 1590,1587 1590,1184 1991,1184 1991,1049 1590,1049 1590,668 C 1590,278 1418,26 1073,-88 Z M 742,514 C 579,263 486,86 463,-16 L 340,-8 C 259,216 219,455 219,708 219,947 257,1225 334,1544 L 492,1516 C 411,1194 370,927 370,715 370,544 386,382 418,229 501,368 572,484 633,576 L 742,514 Z"
   id="glyph62" />
   <glyph
   unicode="お"
   horiz-adv-x="1853"
   d="M 1012,-12 L 1049,111 C 1130,80 1215,65 1305,65 1430,65 1528,94 1599,152 1670,210 1706,293 1706,401 1706,519 1658,609 1562,670 1466,731 1332,762 1161,762 1046,762 935,749 828,724 L 828,123 C 828,-5 731,-69 537,-69 426,-69 328,-36 244,30 159,95 117,178 117,279 117,390 170,494 275,591 380,688 511,763 668,815 L 668,1159 170,1159 170,1290 664,1290 664,1614 828,1614 828,1305 1350,1305 1350,1174 828,1174 828,858 C 937,881 1047,893 1158,893 1358,893 1526,850 1662,765 1798,680 1866,561 1866,409 1866,257 1819,138 1724,53 1629,-32 1500,-75 1337,-75 1201,-75 1093,-54 1012,-12 Z M 672,676 C 557,631 461,573 383,503 305,433 266,361 266,287 266,216 295,163 352,126 409,89 472,70 542,70 629,70 672,101 672,162 L 672,676 Z M 1983,1110 L 1854,1018 C 1723,1180 1560,1329 1364,1464 L 1469,1557 C 1552,1504 1644,1434 1745,1347 1846,1259 1925,1180 1983,1110 Z"
   id="glyph64" />
   <glyph
   unicode="　"
   horiz-adv-x="1"
   id="glyph66" />
   <glyph
   unicode="o"
   horiz-adv-x="1033"
   d="M 608,-31 C 447,-31 320,22 227,129 134,235 87,380 87,564 87,748 134,894 228,1001 322,1108 449,1162 608,1162 767,1162 894,1109 988,1002 1082,895 1129,749 1129,564 1129,379 1082,233 989,128 895,22 768,-31 608,-31 Z M 608,1012 C 499,1012 416,974 357,897 298,820 269,709 269,564 269,421 298,311 357,234 416,157 499,119 608,119 717,119 800,157 859,234 918,311 947,421 947,564 947,863 834,1012 608,1012 Z"
   id="glyph68" />
   <glyph
   unicode="l"
   horiz-adv-x="186"
   d="M 348,0 L 172,0 172,1574 348,1574 348,0 Z"
   id="glyph70" />
   <glyph
   unicode="g"
   horiz-adv-x="980"
   d="M 1073,128 C 1073,-243 897,-428 546,-428 431,-428 316,-412 202,-381 L 202,-199 210,-199 C 327,-247 442,-271 556,-271 671,-271 757,-245 813,-193 869,-142 897,-58 897,57 L 897,169 C 776,68 650,17 518,17 384,17 279,66 203,165 127,264 89,400 89,575 89,750 136,891 230,1000 323,1108 439,1162 578,1162 687,1162 794,1132 897,1073 L 910,1130 1073,1130 1073,128 Z M 897,311 L 897,936 C 798,982 705,1005 619,1005 509,1005 424,969 363,896 302,823 271,719 271,584 271,315 371,180 571,180 677,180 786,224 897,311 Z"
   id="glyph72" />
   <glyph
   unicode=")"
   horiz-adv-x="583"
   d="M 346,-417 L 133,-417 133,-407 C 267,-288 374,-141 453,32 532,205 571,387 571,579 571,770 531,953 452,1127 373,1300 266,1446 133,1564 L 133,1574 346,1574 C 604,1273 733,941 733,579 733,392 703,220 643,61 582,-98 483,-257 346,-417 Z"
   id="glyph74" />
   <glyph
   unicode="("
   horiz-adv-x="583"
   d="M 767,-417 L 554,-417 C 418,-259 320,-100 259,59 198,218 167,392 167,579 167,941 296,1273 554,1574 L 767,1574 767,1564 C 634,1447 528,1302 449,1128 369,953 329,770 329,579 329,387 369,204 448,31 527,-143 634,-289 767,-407 L 767,-417 Z"
   id="glyph76" />
  </font>
</defs>
</svg>
