<?xml version="1.0" encoding="UTF-8" standalone="no"?>
<svg
   xmlns:dc="http://purl.org/dc/elements/1.1/"
   xmlns:cc="http://creativecommons.org/ns#"
   xmlns:rdf="http://www.w3.org/1999/02/22-rdf-syntax-ns#"
   xmlns:svg="http://www.w3.org/2000/svg"
   xmlns="http://www.w3.org/2000/svg"
   xmlns:sodipodi="http://sodipodi.sourceforge.net/DTD/sodipodi-0.dtd"
   xmlns:inkscape="http://www.inkscape.org/namespaces/inkscape"
   version="1.2"
   width="290mm"
   height="260mm"
   viewBox="0 0 29000 26000"
   preserveAspectRatio="xMidYMid"
   xml:space="preserve"
   id="svg1393"
   sodipodi:docname="海水中の腐食電位列.svg"
   style="fill-rule:evenodd;stroke-width:28.22200012;stroke-linejoin:round"
   inkscape:version="0.92.4 (5da689c313, 2019-01-14)"><metadata
   id="metadata1397"><rdf:RDF><cc:Work
       rdf:about=""><dc:format>image/svg+xml</dc:format><dc:type
         rdf:resource="http://purl.org/dc/dcmitype/StillImage" /><dc:title></dc:title></cc:Work></rdf:RDF></metadata><sodipodi:namedview
   pagecolor="#ffffff"
   bordercolor="#666666"
   borderopacity="1"
   objecttolerance="10"
   gridtolerance="10"
   guidetolerance="10"
   inkscape:pageopacity="0"
   inkscape:pageshadow="2"
   inkscape:window-width="1920"
   inkscape:window-height="1137"
   id="namedview1395"
   showgrid="false"
   inkscape:zoom="0.63075608"
   inkscape:cx="432.74611"
   inkscape:cy="144.14133"
   inkscape:window-x="-8"
   inkscape:window-y="-8"
   inkscape:window-maximized="1"
   inkscape:current-layer="svg1393" />
 <defs
   id="defs51">
  <font
   id="EmbeddedFont_1"
   horiz-adv-x="2048"
   horiz-origin-x="0"
   horiz-origin-y="0"
   vert-origin-x="45"
   vert-origin-y="90"
   vert-adv-y="90">
   <font-face
   font-family="Arial embedded"
   units-per-em="2048"
   font-weight="normal"
   font-style="normal"
   ascent="1852"
   descent="450"
   id="font-face2" />
   <missing-glyph
   horiz-adv-x="2048"
   d="M 0,0 L 2047,0 2047,2047 0,2047 0,0 Z"
   id="missing-glyph4" />
   <glyph
   unicode="−"
   horiz-adv-x="953"
   d="M 1082,639 L 114,639 114,807 1082,807 1082,639 Z"
   id="glyph6" />
   <glyph
   unicode="℃"
   horiz-adv-x="1615"
   d="M 316,1607 C 377,1607 430,1583 474,1536 513,1495 532,1446 532,1389 532,1347 520,1308 496,1272 453,1205 392,1172 313,1172 278,1172 245,1180 213,1197 188,1210 167,1227 150,1248 114,1290 97,1338 97,1391 97,1466 128,1525 190,1569 227,1594 269,1607 316,1607 Z M 314,1518 C 291,1518 268,1512 247,1499 206,1474 185,1437 185,1389 185,1356 196,1328 218,1303 244,1275 276,1261 315,1261 336,1261 356,1266 375,1276 420,1301 443,1338 443,1389 443,1426 430,1458 404,1484 378,1507 348,1518 314,1518 Z M 1147,1475 C 1285,1475 1410,1439 1522,1367 1580,1330 1622,1291 1651,1250 1669,1224 1678,1201 1678,1183 1678,1162 1669,1143 1651,1125 1633,1108 1613,1100 1591,1100 1571,1100 1554,1107 1541,1121 1539,1123 1530,1133 1516,1153 1427,1266 1305,1323 1150,1323 1005,1323 887,1262 796,1141 717,1035 678,906 678,752 678,619 709,504 770,404 864,255 995,181 1164,181 1332,181 1461,250 1552,389 1567,412 1589,424 1617,424 1641,424 1662,415 1681,399 1700,382 1710,362 1710,338 1710,310 1692,275 1657,232 1545,95 1380,26 1164,26 1006,26 871,70 759,157 588,292 502,490 502,752 502,948 557,1114 666,1248 790,1399 950,1475 1147,1475 Z"
   id="glyph8" />
   <glyph
   unicode="v"
   horiz-adv-x="954"
   d="M 430,0 L 26,1062 216,1062 444,426 C 469,357 491,286 512,212 528,268 550,335 579,414 L 815,1062 1000,1062 598,0 430,0 Z"
   id="glyph10" />
   <glyph
   unicode="s"
   horiz-adv-x="874"
   d="M 63,317 L 241,345 C 251,274 279,219 325,181 370,143 434,124 516,124 599,124 660,141 700,175 740,208 760,248 760,293 760,334 742,366 707,389 682,405 621,425 523,450 391,483 300,512 249,537 198,561 159,595 133,638 106,681 93,728 93,780 93,827 104,871 126,912 147,952 177,985 214,1012 242,1033 280,1050 329,1065 377,1079 429,1086 484,1086 567,1086 641,1074 704,1050 767,1026 813,994 843,953 873,912 894,857 905,788 L 729,764 C 721,819 698,861 660,892 621,923 567,938 497,938 414,938 355,924 320,897 285,870 267,838 267,801 267,778 274,757 289,738 304,719 327,703 358,690 376,683 429,668 517,644 644,610 733,582 784,561 834,539 873,507 902,466 931,425 945,373 945,312 945,252 928,196 893,143 858,90 807,49 741,20 675,-9 600,-24 517,-24 379,-24 274,5 202,62 129,119 83,204 63,317 Z"
   id="glyph12" />
   <glyph
   unicode="m"
   horiz-adv-x="1457"
   d="M 135,0 L 135,1062 296,1062 296,913 C 329,965 374,1007 429,1039 484,1070 547,1086 618,1086 697,1086 761,1070 812,1037 862,1004 897,959 918,900 1002,1024 1111,1086 1246,1086 1351,1086 1432,1057 1489,999 1546,940 1574,850 1574,729 L 1574,0 1395,0 1395,669 C 1395,741 1389,793 1378,825 1366,856 1345,882 1314,901 1283,920 1247,930 1206,930 1131,930 1069,905 1020,856 971,806 946,726 946,617 L 946,0 766,0 766,690 C 766,770 751,830 722,870 693,910 645,930 578,930 527,930 481,917 438,890 395,863 363,824 344,773 325,722 315,648 315,551 L 315,0 135,0 Z"
   id="glyph14" />
   <glyph
   unicode="]"
   horiz-adv-x="398"
   d="M 436,-407 L 39,-407 39,-258 256,-258 256,1317 39,1317 39,1466 436,1466 436,-407 Z"
   id="glyph16" />
   <glyph
   unicode="["
   horiz-adv-x="398"
   d="M 139,-407 L 139,1466 536,1466 536,1317 319,1317 319,-258 536,-258 536,-407 139,-407 Z"
   id="glyph18" />
   <glyph
   unicode="V"
   horiz-adv-x="1324"
   d="M 577,0 L 9,1466 219,1466 600,401 C 631,316 656,236 677,161 700,241 726,321 756,401 L 1152,1466 1350,1466 776,0 577,0 Z"
   id="glyph20" />
   <glyph
   unicode="S"
   horiz-adv-x="1139"
   d="M 92,471 L 275,487 C 284,414 304,354 336,307 367,260 416,222 483,193 550,164 625,149 708,149 782,149 847,160 904,182 961,204 1003,234 1031,273 1058,311 1072,353 1072,398 1072,444 1059,484 1032,519 1005,553 961,582 900,605 861,620 774,644 639,677 504,709 410,739 356,768 286,805 234,850 200,905 165,959 148,1020 148,1087 148,1161 169,1230 211,1295 253,1359 314,1408 395,1441 476,1474 565,1491 664,1491 773,1491 869,1474 952,1439 1035,1404 1098,1352 1143,1284 1188,1216 1212,1139 1215,1053 L 1029,1039 C 1019,1132 985,1202 928,1249 870,1296 785,1320 672,1320 555,1320 469,1299 416,1256 362,1213 335,1161 335,1100 335,1047 354,1004 392,970 429,936 527,901 685,866 842,830 950,799 1009,772 1094,733 1157,683 1198,623 1239,562 1259,493 1259,414 1259,336 1237,263 1192,194 1147,125 1083,71 1000,33 916,-6 822,-25 717,-25 584,-25 473,-6 384,33 294,72 224,130 173,208 122,285 95,373 92,471 Z"
   id="glyph22" />
   <glyph
   unicode="E"
   horiz-adv-x="1059"
   d="M 162,0 L 162,1466 1222,1466 1222,1293 356,1293 356,844 1167,844 1167,672 356,672 356,173 1256,173 1256,0 162,0 Z"
   id="glyph24" />
   <glyph
   unicode="C"
   horiz-adv-x="1298"
   d="M 1204,514 L 1398,465 C 1357,306 1284,184 1179,101 1073,17 944,-25 791,-25 633,-25 505,7 406,72 307,136 231,229 180,351 128,473 102,604 102,744 102,897 131,1030 190,1144 248,1257 331,1344 439,1403 546,1462 665,1491 794,1491 941,1491 1064,1454 1164,1379 1264,1304 1334,1199 1373,1064 L 1182,1019 C 1148,1126 1099,1203 1034,1252 969,1301 888,1325 790,1325 677,1325 583,1298 508,1244 432,1190 379,1118 348,1027 317,936 302,842 302,745 302,620 320,512 357,419 393,326 449,256 526,210 603,164 686,141 775,141 884,141 976,172 1051,235 1126,298 1177,391 1204,514 Z"
   id="glyph26" />
   <glyph
   unicode="8"
   horiz-adv-x="954"
   d="M 362,795 C 287,822 232,861 196,912 160,963 142,1023 142,1094 142,1201 180,1290 257,1363 334,1436 436,1472 563,1472 691,1472 794,1435 872,1361 950,1286 989,1196 989,1089 989,1021 971,962 936,912 900,861 846,822 773,795 863,766 932,718 979,653 1026,588 1049,510 1049,419 1049,294 1005,188 916,103 827,18 711,-25 566,-25 421,-25 305,18 216,104 127,189 83,296 83,424 83,519 107,599 156,664 204,728 273,772 362,795 Z M 326,1100 C 326,1031 348,974 393,930 438,886 496,864 567,864 636,864 693,886 738,930 782,973 804,1027 804,1090 804,1156 781,1212 736,1257 690,1302 633,1324 565,1324 496,1324 439,1302 394,1258 349,1214 326,1161 326,1100 Z M 268,423 C 268,372 280,322 305,274 329,226 365,189 413,163 461,136 513,123 568,123 654,123 725,151 781,206 837,261 865,332 865,417 865,504 836,575 779,632 721,689 649,717 562,717 477,717 407,689 352,633 296,577 268,507 268,423 Z"
   id="glyph28" />
   <glyph
   unicode="7"
   horiz-adv-x="954"
   d="M 97,1274 L 97,1447 1046,1447 1046,1307 C 953,1208 860,1076 769,911 677,746 606,577 556,403 520,280 497,146 487,0 L 302,0 C 304,115 327,255 370,418 413,581 476,739 557,891 638,1042 724,1170 815,1274 L 97,1274 Z"
   id="glyph30" />
   <glyph
   unicode="6"
   horiz-adv-x="980"
   d="M 1019,1107 L 840,1093 C 824,1164 801,1215 772,1247 723,1298 663,1324 592,1324 535,1324 484,1308 441,1276 384,1235 340,1174 307,1095 274,1016 257,903 256,756 299,822 352,871 415,903 478,935 543,951 612,951 732,951 834,907 919,819 1003,730 1045,616 1045,476 1045,384 1025,299 986,220 946,141 891,80 822,38 753,-4 674,-25 586,-25 436,-25 314,30 219,141 124,251 77,433 77,686 77,969 129,1175 234,1304 325,1416 448,1472 603,1472 718,1472 813,1440 887,1375 960,1310 1004,1221 1019,1107 Z M 284,475 C 284,413 297,354 324,297 350,240 387,197 434,168 481,138 531,123 583,123 659,123 724,154 779,215 834,276 861,360 861,465 861,566 834,646 780,705 726,763 658,792 576,792 495,792 426,763 369,705 312,646 284,570 284,475 Z"
   id="glyph32" />
   <glyph
   unicode="4"
   horiz-adv-x="1007"
   d="M 662,0 L 662,351 26,351 26,516 695,1466 842,1466 842,516 1040,516 1040,351 842,351 842,0 662,0 Z M 662,516 L 662,1177 203,516 662,516 Z"
   id="glyph34" />
   <glyph
   unicode="2"
   horiz-adv-x="953"
   d="M 1031,173 L 1031,0 62,0 C 61,43 68,85 83,125 108,191 147,256 202,320 256,384 334,458 437,542 596,673 704,776 760,853 816,929 844,1001 844,1069 844,1140 819,1201 768,1250 717,1299 650,1323 568,1323 481,1323 412,1297 360,1245 308,1193 282,1121 281,1029 L 96,1048 C 109,1186 156,1291 239,1364 322,1436 433,1472 572,1472 713,1472 824,1433 906,1355 988,1277 1029,1180 1029,1065 1029,1006 1017,949 993,892 969,835 929,776 874,713 818,650 725,564 596,455 488,364 419,303 388,271 357,238 332,206 312,173 L 1031,173 Z"
   id="glyph36" />
   <glyph
   unicode="1"
   horiz-adv-x="530"
   d="M 763,0 L 583,0 583,1147 C 540,1106 483,1064 413,1023 342,982 279,951 223,930 L 223,1104 C 324,1151 412,1209 487,1276 562,1343 616,1409 647,1472 L 763,1472 763,0 Z"
   id="glyph38" />
   <glyph
   unicode="0"
   horiz-adv-x="954"
   d="M 85,723 C 85,896 103,1036 139,1142 174,1247 227,1329 298,1386 368,1443 456,1472 563,1472 642,1472 711,1456 770,1425 829,1393 878,1347 917,1288 956,1228 986,1155 1008,1070 1030,984 1041,868 1041,723 1041,551 1023,412 988,307 953,201 900,119 830,62 759,4 670,-25 563,-25 422,-25 311,26 230,127 133,249 85,448 85,723 Z M 270,723 C 270,482 298,322 355,243 411,163 480,123 563,123 646,123 715,163 772,243 828,323 856,483 856,723 856,964 828,1125 772,1204 715,1283 645,1323 561,1323 478,1323 412,1288 363,1218 301,1129 270,964 270,723 Z"
   id="glyph40" />
   <glyph
   unicode="/"
   horiz-adv-x="557"
   d="M 0,-25 L 425,1491 569,1491 145,-25 0,-25 Z"
   id="glyph42" />
   <glyph
   unicode="."
   horiz-adv-x="212"
   d="M 186,0 L 186,205 391,205 391,0 186,0 Z"
   id="glyph44" />
   <glyph
   unicode="+"
   horiz-adv-x="953"
   d="M 513,237 L 513,639 114,639 114,807 513,807 513,1206 683,1206 683,807 1082,807 1082,639 683,639 683,237 513,237 Z"
   id="glyph46" />
   <glyph
   unicode=" "
   horiz-adv-x="556"
   id="glyph48" />
  </font>
 </defs>
 <defs
   id="defs274">
  <font
   id="EmbeddedFont_2"
   horiz-adv-x="2048"
   horiz-origin-x="0"
   horiz-origin-y="0"
   vert-origin-x="45"
   vert-origin-y="90"
   vert-adv-y="90">
   <font-face
   font-family="メイリオ embedded"
   units-per-em="2048"
   font-weight="normal"
   font-style="normal"
   ascent="2170"
   descent="900"
   id="font-face53" />
   <missing-glyph
   horiz-adv-x="2048"
   d="M 0,0 L 2047,0 2047,2047 0,2047 0,0 Z"
   id="missing-glyph55" />
   <glyph
   unicode="）"
   horiz-adv-x="530"
   d="M 659,788 C 659,445 543,135 311,-144 L 115,-144 115,-136 C 224,-35 313,89 382,235 463,409 504,593 504,788 504,981 463,1165 382,1338 313,1484 224,1608 115,1709 L 115,1720 311,1720 C 543,1439 659,1129 659,788 Z"
   id="glyph57" />
   <glyph
   unicode="（"
   horiz-adv-x="557"
   d="M 1921,-145 L 1724,-145 C 1492,134 1376,444 1376,787 1376,1127 1492,1437 1724,1718 L 1921,1718 1921,1708 C 1812,1607 1723,1483 1654,1337 1573,1164 1532,980 1532,787 1532,592 1573,408 1654,234 1723,88 1812,-36 1921,-137 L 1921,-145 Z"
   id="glyph59" />
   <glyph
   unicode="黒"
   horiz-adv-x="1880"
   d="M 928,465 L 928,639 174,639 174,756 928,756 928,927 257,927 257,1635 1763,1635 1763,927 1087,927 1087,756 1870,756 1870,639 1087,639 1087,465 1972,465 1972,346 80,346 80,465 928,465 Z M 414,1330 L 928,1330 928,1524 414,1524 414,1330 Z M 1087,1330 L 1601,1330 1601,1524 1087,1524 1087,1330 Z M 1601,1226 L 1087,1226 1087,1038 1601,1038 1601,1226 Z M 928,1226 L 414,1226 414,1038 928,1038 928,1226 Z M 1809,-126 C 1738,2 1662,122 1582,235 L 1722,296 C 1791,209 1872,90 1964,-61 L 1809,-126 Z M 224,-128 L 84,-63 C 175,42 248,155 305,277 L 454,231 C 438,188 403,126 349,44 295,-38 253,-95 224,-128 Z M 1237,-107 L 1099,229 1245,267 C 1286,186 1335,76 1394,-65 L 1237,-107 Z M 725,-105 L 627,235 773,265 C 815,155 851,42 882,-74 L 725,-105 Z"
   id="glyph61" />
   <glyph
   unicode="黄"
   horiz-adv-x="1827"
   d="M 941,931 L 941,1089 107,1089 107,1210 608,1210 608,1398 191,1398 191,1522 608,1522 608,1689 765,1689 765,1522 1275,1522 1275,1689 1431,1689 1431,1522 1862,1522 1862,1398 1431,1398 1431,1210 1943,1210 1943,1089 1095,1089 1095,931 1751,931 1751,195 305,195 305,931 941,931 Z M 765,1398 L 765,1210 1275,1210 1275,1398 765,1398 Z M 941,626 L 941,816 462,816 462,626 941,626 Z M 1095,816 L 1095,626 1596,626 1596,816 1095,816 Z M 1596,519 L 1095,519 1095,318 1596,318 1596,519 Z M 941,519 L 462,519 462,318 941,318 941,519 Z M 136,-133 L 99,-14 C 197,2 303,29 416,68 529,107 621,148 692,191 L 792,74 C 713,30 605,-13 468,-56 331,-99 221,-124 136,-133 Z M 1870,-133 C 1598,-82 1391,-9 1250,85 L 1333,191 C 1496,104 1696,40 1935,1 L 1870,-133 Z"
   id="glyph63" />
   <glyph
   unicode="食"
   horiz-adv-x="1933"
   d="M 164,-112 L 141,11 C 208,15 297,22 408,31 L 408,1168 C 297,1116 189,1075 84,1045 L 30,1152 C 207,1200 379,1278 547,1386 715,1494 840,1598 922,1697 L 1102,1697 C 1188,1597 1322,1498 1503,1401 1684,1303 1849,1234 1996,1194 L 1920,1072 C 1827,1105 1732,1144 1636,1189 L 1636,504 1105,504 C 1176,415 1257,338 1348,273 1515,339 1671,417 1816,506 L 1922,404 C 1801,336 1650,266 1469,195 1611,113 1784,49 1987,3 L 1916,-122 C 1679,-64 1483,18 1328,125 1173,232 1042,358 936,504 L 556,504 556,45 C 877,75 1086,99 1183,116 L 1183,-5 C 1122,-16 970,-34 725,-59 480,-85 293,-103 164,-112 Z M 481,1204 L 953,1204 953,1373 1104,1373 1104,1204 1606,1204 C 1351,1329 1156,1459 1023,1594 896,1454 715,1324 481,1204 Z M 556,909 L 1486,909 1486,1093 556,1093 556,909 Z M 1486,803 L 556,803 556,617 1486,617 1486,803 Z"
   id="glyph65" />
   <glyph
   unicode="青"
   horiz-adv-x="1853"
   d="M 90,980 L 90,1093 928,1093 928,1237 253,1237 253,1346 928,1346 928,1484 168,1484 168,1599 928,1599 928,1714 1087,1714 1087,1599 1885,1599 1885,1484 1087,1484 1087,1346 1774,1346 1774,1237 1087,1237 1087,1093 1960,1093 1960,980 90,980 Z M 1567,224 L 485,224 485,-127 330,-127 330,851 1726,851 1726,26 C 1726,-15 1709,-49 1675,-74 1640,-99 1601,-112 1557,-112 L 1277,-112 1256,26 1486,26 C 1540,26 1567,50 1567,99 L 1567,224 Z M 1567,594 L 1567,744 485,744 485,594 1567,594 Z M 485,333 L 1567,333 1567,489 485,489 485,333 Z"
   id="glyph67" />
   <glyph
   unicode="電"
   horiz-adv-x="1879"
   d="M 1750,973 L 1750,1296 1057,1296 1057,885 904,885 904,1296 244,1296 244,973 106,973 106,1399 904,1399 904,1528 234,1528 234,1635 1738,1635 1740,1528 1057,1528 1057,1399 1892,1399 1892,973 1750,973 Z M 386,1104 L 386,1190 752,1190 752,1104 386,1104 Z M 1211,1104 L 1211,1190 1602,1190 1602,1104 1211,1104 Z M 386,914 L 386,1000 752,1000 752,914 386,914 Z M 1211,914 L 1211,1000 1602,1000 1602,914 1211,914 Z M 372,198 L 372,112 230,112 230,805 1755,805 1755,198 1059,198 1059,110 C 1059,85 1066,66 1079,52 1092,38 1112,29 1137,26 1162,23 1202,20 1257,17 1312,14 1368,12 1425,12 1492,12 1562,14 1636,18 1709,22 1756,25 1775,28 1794,30 1810,37 1825,48 1839,59 1850,76 1857,98 1864,120 1869,189 1872,306 L 2003,287 2003,64 C 2003,36 1997,11 1984,-10 1971,-31 1953,-48 1932,-61 1911,-74 1889,-84 1866,-89 1843,-94 1779,-98 1674,-101 1569,-104 1471,-106 1381,-106 1212,-106 1102,-102 1049,-94 996,-87 959,-69 936,-42 913,-15 902,22 902,70 L 902,198 372,198 Z M 378,548 L 902,548 902,705 378,705 378,548 Z M 1057,548 L 1606,548 1606,705 1057,705 1057,548 Z M 1606,452 L 1057,452 1057,300 1606,300 1606,452 Z M 902,452 L 378,452 378,300 902,300 902,452 Z"
   id="glyph69" />
   <glyph
   unicode="鋼"
   horiz-adv-x="1880"
   d="M 53,-112 L 34,11 C 103,16 220,32 383,61 L 383,711 101,711 101,824 383,824 383,1081 220,1081 220,1178 C 176,1125 132,1079 88,1039 L 15,1129 C 78,1191 146,1277 218,1388 290,1498 342,1599 375,1691 L 556,1687 C 637,1547 718,1440 799,1367 L 713,1271 C 629,1344 550,1448 477,1584 418,1449 335,1316 226,1185 L 702,1185 702,1081 517,1081 517,824 763,824 763,711 517,711 517,85 755,130 757,24 C 648,-5 414,-51 53,-112 Z M 1904,36 C 1904,-7 1890,-41 1861,-65 1832,-90 1795,-102 1751,-102 L 1546,-102 1532,24 1686,24 C 1738,24 1764,46 1764,91 L 1764,1519 970,1519 970,-110 838,-110 838,1630 1904,1630 1904,36 Z M 1647,235 L 1198,235 1198,147 1099,147 1099,838 1198,838 1198,331 1317,331 1317,999 1039,999 1039,1097 1188,1097 1110,1386 1225,1409 1310,1097 1417,1097 C 1454,1192 1486,1298 1511,1415 L 1636,1390 C 1611,1291 1579,1194 1538,1097 L 1684,1097 1684,999 1419,999 1419,331 1542,331 1542,838 1647,838 1647,235 Z M 705,228 L 598,241 652,592 773,575 705,228 Z M 166,174 L 109,544 228,567 285,197 166,174 Z"
   id="glyph71" />
   <glyph
   unicode="鋳"
   horiz-adv-x="1959"
   d="M 1599,-110 L 1348,-110 1332,23 1538,23 C 1593,23 1620,45 1620,88 L 1620,546 1188,546 C 1126,389 1046,243 947,107 L 839,182 C 912,277 977,398 1036,546 L 882,546 882,661 1078,661 C 1103,733 1124,805 1142,878 L 893,878 893,993 1169,993 C 1181,1047 1192,1104 1201,1164 L 951,1164 951,1273 1217,1273 C 1226,1337 1232,1393 1236,1440 L 910,1440 910,1555 1244,1555 C 1248,1618 1250,1673 1250,1718 L 1400,1718 1394,1555 1933,1555 1933,1440 1384,1440 C 1379,1388 1372,1332 1364,1273 L 1875,1273 1875,1164 1348,1164 C 1339,1103 1328,1046 1317,993 L 1954,993 1954,878 1292,878 C 1274,802 1253,730 1230,661 L 1620,661 1620,790 1774,790 1774,661 1977,661 1977,546 1774,546 1774,32 C 1774,-11 1756,-45 1721,-71 1685,-97 1644,-110 1599,-110 Z M 95,-114 L 72,7 404,45 404,700 124,700 124,815 404,815 404,1080 243,1080 243,1184 C 198,1131 152,1084 105,1043 L 24,1126 C 113,1211 191,1307 258,1414 325,1521 370,1612 394,1688 L 573,1688 C 644,1561 729,1455 826,1369 L 740,1273 C 647,1349 566,1451 498,1580 441,1447 357,1316 246,1187 L 738,1187 738,1080 546,1080 546,815 791,815 791,700 546,700 546,63 C 675,80 767,94 822,105 L 824,-10 C 747,-25 504,-60 95,-114 Z M 745,222 L 642,234 703,585 820,573 745,222 Z M 183,176 L 116,546 239,567 304,199 183,176 Z M 1315,155 C 1285,198 1229,269 1148,368 L 1254,441 1428,232 1315,155 Z"
   id="glyph73" />
   <glyph
   unicode="銅"
   horiz-adv-x="1854"
   d="M 720,1275 C 630,1354 551,1456 484,1582 399,1382 270,1204 96,1047 L 25,1137 C 90,1196 158,1280 231,1389 304,1498 354,1597 382,1687 L 561,1687 C 619,1569 701,1464 808,1371 L 720,1275 Z M 1740,-101 L 1541,-101 1516,28 1673,28 C 1731,28 1760,52 1760,99 L 1760,1507 1027,1507 1027,-120 887,-120 887,1628 1909,1628 1909,61 C 1909,-47 1853,-101 1740,-101 Z M 1130,1158 L 1130,1273 1658,1273 1658,1158 1130,1158 Z M 789,15 C 680,-10 442,-46 75,-93 L 48,28 C 129,37 243,50 390,69 L 390,707 112,707 112,818 390,818 390,1081 233,1081 233,1185 735,1185 735,1081 534,1081 534,818 781,818 781,707 534,707 534,88 791,124 789,15 Z M 1297,329 L 1297,229 1176,229 1176,945 1621,945 1621,329 1297,329 Z M 1297,425 L 1499,425 1499,847 1297,847 1297,425 Z M 737,239 L 632,243 676,588 791,577 737,239 Z M 169,181 L 114,542 236,563 284,201 169,181 Z"
   id="glyph75" />
   <glyph
   unicode="銀"
   horiz-adv-x="1985"
   d="M 86,-85 L 55,32 C 139,43 266,62 437,91 L 437,703 126,703 126,818 437,818 437,1093 255,1093 255,1186 C 211,1140 160,1094 103,1049 L 21,1139 C 89,1190 164,1268 246,1375 328,1481 388,1588 427,1695 L 619,1695 C 686,1578 779,1469 899,1369 L 803,1271 C 694,1366 604,1469 531,1580 462,1443 376,1318 272,1204 L 803,1204 803,1093 581,1093 581,818 857,818 857,703 581,703 581,116 859,166 859,55 C 710,19 453,-28 86,-85 Z M 865,-114 L 842,1 C 891,7 935,13 974,19 L 974,1649 1820,1649 1820,774 1466,774 C 1492,667 1531,567 1582,474 1699,543 1805,615 1899,690 L 2000,590 C 1916,527 1798,454 1646,371 1745,221 1866,91 2008,-18 L 1895,-116 C 1768,-19 1651,106 1545,261 1438,416 1364,587 1321,774 L 1127,774 1127,44 C 1257,67 1395,93 1540,124 L 1553,13 C 1406,-26 1177,-68 865,-114 Z M 1127,1269 L 1668,1269 1668,1536 1127,1536 1127,1269 Z M 1668,1158 L 1127,1158 1127,884 1668,884 1668,1158 Z M 786,258 L 675,272 740,592 863,575 786,258 Z M 195,199 L 132,533 258,556 318,224 195,199 Z"
   id="glyph77" />
   <glyph
   unicode="鉛"
   horiz-adv-x="1985"
   d="M 82,-108 L 55,24 C 135,29 262,43 437,64 L 437,694 113,694 113,820 437,820 437,1070 249,1070 249,1186 C 194,1128 142,1079 93,1039 L 19,1137 C 92,1197 169,1281 250,1389 331,1497 388,1598 421,1691 L 602,1691 C 667,1575 769,1466 907,1363 L 815,1256 C 700,1346 604,1453 525,1578 464,1447 374,1317 253,1189 L 788,1189 788,1070 586,1070 586,820 849,820 849,694 586,694 586,83 897,126 899,7 C 803,-13 531,-51 82,-108 Z M 2006,945 L 1885,855 C 1728,1064 1603,1328 1509,1647 L 1643,1680 C 1688,1531 1739,1403 1794,1296 1849,1189 1919,1072 2006,945 Z M 949,855 L 845,932 C 922,1020 995,1135 1063,1278 1130,1420 1175,1551 1198,1670 L 1344,1647 C 1323,1549 1283,1431 1225,1292 1166,1153 1074,1007 949,855 Z M 1720,-31 L 1160,-31 1160,-102 1005,-102 1005,782 1870,782 1870,-102 1720,-102 1720,-31 Z M 1160,86 L 1720,86 1720,665 1160,665 1160,86 Z M 797,228 L 686,241 755,592 880,575 797,228 Z M 195,174 L 139,540 264,563 318,197 195,174 Z"
   id="glyph79" />
   <glyph
   unicode="鉄"
   horiz-adv-x="2012"
   d="M 1350,813 L 1350,1221 1105,1221 C 1069,1112 1036,1029 1005,974 L 874,1020 C 908,1077 944,1169 981,1296 1018,1423 1042,1528 1051,1611 L 1200,1593 C 1193,1532 1174,1448 1143,1342 L 1350,1342 1350,1697 1505,1697 1505,1342 1916,1342 1916,1221 1505,1221 1505,813 1973,813 1973,692 1528,692 C 1559,577 1621,454 1713,323 1804,192 1908,86 2025,7 L 1929,-110 C 1814,-31 1713,70 1626,192 1539,313 1475,436 1435,561 1387,404 1315,266 1219,146 1123,25 1011,-66 884,-127 L 809,-26 C 936,37 1047,138 1144,277 1241,416 1302,554 1327,692 L 928,692 928,813 1350,813 Z M 91,-110 L 61,18 C 148,28 271,47 429,76 L 429,715 105,715 105,830 429,830 429,1081 241,1081 241,1178 C 184,1119 134,1074 89,1041 L 18,1139 C 93,1198 171,1281 252,1388 333,1495 392,1597 429,1693 L 625,1691 C 650,1643 691,1585 747,1518 803,1451 855,1397 903,1357 L 807,1258 C 697,1339 607,1449 536,1588 484,1467 390,1335 254,1192 L 780,1192 780,1081 577,1081 577,830 853,830 853,715 577,715 577,104 C 711,129 809,149 872,164 L 872,49 C 732,9 472,-44 91,-110 Z M 790,243 L 680,260 749,602 876,586 790,243 Z M 185,191 L 116,552 245,573 310,218 185,191 Z"
   id="glyph81" />
   <glyph
   unicode="金"
   horiz-adv-x="1959"
   d="M 1343,55 C 1382,128 1439,266 1515,468 L 1680,428 C 1638,341 1576,216 1495,55 L 1891,55 1891,-67 145,-67 145,55 520,55 C 461,233 413,357 378,428 L 531,468 685,55 930,55 930,591 224,591 224,715 930,715 930,1011 531,1011 531,1126 C 387,1025 245,943 105,878 L 32,984 C 162,1038 324,1140 519,1290 714,1440 846,1575 915,1694 L 1126,1694 C 1211,1575 1337,1451 1502,1324 1667,1196 1839,1095 2020,1022 L 1935,901 C 1784,963 1618,1063 1437,1200 1256,1337 1120,1465 1030,1586 905,1425 739,1273 534,1128 L 1517,1128 1517,1011 1085,1011 1085,715 1822,715 1822,591 1085,591 1085,55 1343,55 Z"
   id="glyph83" />
   <glyph
   unicode="部"
   horiz-adv-x="1853"
   d="M 70,832 L 70,947 340,947 236,1336 109,1336 109,1457 554,1457 554,1685 711,1685 711,1457 1125,1457 1125,1336 1028,1336 895,947 1135,947 1135,832 70,832 Z M 488,947 L 755,947 873,1336 388,1336 488,947 Z M 1515,164 L 1486,295 C 1579,295 1638,299 1663,306 1688,313 1709,327 1728,349 1746,371 1760,402 1769,441 1778,480 1783,528 1783,584 1783,719 1726,856 1613,995 1606,1010 1603,1021 1603,1028 1603,1033 1604,1038 1605,1041 1630,1110 1658,1199 1689,1308 1720,1417 1735,1485 1735,1511 L 1400,1511 1400,-116 1250,-116 1250,1626 1902,1626 1925,1597 C 1916,1552 1889,1460 1842,1319 1795,1178 1761,1087 1741,1047 1816,936 1867,850 1894,788 1921,726 1935,661 1937,594 L 1938,567 C 1938,481 1927,409 1906,351 1885,292 1853,248 1812,219 1771,190 1731,173 1694,170 1656,166 1596,164 1515,164 Z M 887,-14 L 316,-14 316,-99 166,-99 166,636 1039,636 1039,-99 887,-99 887,-14 Z M 316,107 L 887,107 887,519 316,519 316,107 Z"
   id="glyph85" />
   <glyph
   unicode="軟"
   horiz-adv-x="1959"
   d="M 1276,1296 C 1223,1127 1165,995 1103,901 L 986,958 C 1104,1194 1178,1440 1208,1695 L 1366,1678 C 1356,1599 1338,1512 1311,1415 L 1937,1415 1964,1386 C 1913,1168 1854,993 1788,861 L 1663,884 C 1724,1042 1764,1179 1784,1296 L 1276,1296 Z M 46,222 L 46,339 456,339 456,515 132,515 132,1229 456,1229 456,1386 90,1386 90,1505 456,1505 456,1682 608,1682 608,1505 965,1505 965,1386 608,1386 608,1229 938,1229 938,515 608,515 608,339 986,339 986,222 608,222 608,-125 456,-125 456,222 46,222 Z M 272,928 L 466,928 466,1121 272,1121 272,928 Z M 602,928 L 796,928 796,1121 602,1121 602,928 Z M 796,826 L 602,826 602,623 796,623 796,826 Z M 466,826 L 272,826 272,623 466,623 466,826 Z M 1437,606 C 1399,445 1331,301 1233,174 1135,47 1033,-49 928,-112 L 852,-18 C 1017,90 1142,239 1227,428 1312,617 1350,864 1341,1171 L 1502,1171 C 1502,1072 1500,997 1496,946 1513,749 1573,566 1674,399 1775,232 1891,99 2022,1 L 1924,-112 C 1693,73 1531,312 1437,606 Z"
   id="glyph87" />
   <glyph
   unicode="腐"
   horiz-adv-x="1932"
   d="M 365,1453 L 365,997 C 365,764 342,552 295,359 248,166 190,18 120,-85 L 16,-14 C 151,235 218,547 218,924 L 218,1563 1014,1563 1014,1695 1171,1695 1171,1561 1967,1561 1967,1453 365,1453 Z M 671,836 L 671,1109 C 594,1049 530,1005 481,978 L 415,1054 C 484,1093 558,1147 639,1216 720,1285 779,1351 818,1413 L 943,1375 C 910,1326 864,1275 807,1222 L 807,836 671,836 Z M 1584,836 L 1392,836 1371,949 1528,949 C 1575,949 1599,971 1599,1014 L 1599,1194 960,1194 960,1288 1599,1288 1599,1386 1745,1386 1745,1288 1950,1288 1950,1194 1745,1194 1745,960 C 1745,924 1729,894 1697,871 1665,848 1627,836 1584,836 Z M 1208,937 C 1145,992 1082,1042 1020,1085 L 1110,1152 C 1176,1112 1242,1064 1309,1008 L 1208,937 Z M 1718,-120 L 1484,-120 1463,-1 1651,-1 C 1701,-1 1726,20 1726,61 L 1726,632 1251,632 C 1314,555 1442,500 1637,467 L 1593,377 C 1486,392 1396,419 1323,460 1250,501 1196,548 1163,601 1124,541 1063,490 980,447 896,404 801,377 694,366 L 665,452 C 851,473 978,533 1046,632 L 586,632 586,-122 440,-122 440,724 1075,724 1075,834 1217,834 1217,724 1875,724 1875,20 C 1875,-19 1860,-52 1830,-79 1800,-106 1763,-120 1718,-120 Z M 1210,389 C 1233,335 1281,288 1353,247 1425,206 1516,179 1626,164 L 1580,66 C 1489,75 1407,97 1332,134 1257,170 1201,215 1162,269 1081,152 924,80 690,51 L 665,143 C 788,159 889,190 968,236 1047,282 1087,343 1087,419 L 1087,435 1210,435 1210,389 Z"
   id="glyph89" />
   <glyph
   unicode="白"
   horiz-adv-x="1588"
   d="M 1651,15 L 387,15 387,-100 230,-100 230,1348 826,1348 C 891,1511 930,1621 945,1680 L 1122,1649 C 1091,1567 1045,1467 985,1348 L 1812,1348 1812,-95 1651,-95 1651,15 Z M 1651,765 L 1651,1223 387,1223 387,765 1651,765 Z M 387,139 L 1651,139 1651,644 387,644 387,139 Z"
   id="glyph91" />
   <glyph
   unicode="活"
   horiz-adv-x="1879"
   d="M 1676,-32 L 868,-32 868,-114 711,-114 711,694 1187,694 1187,1012 588,1012 588,1137 1187,1137 1187,1446 C 1027,1431 866,1420 703,1411 L 682,1534 C 1159,1555 1529,1601 1793,1672 L 1868,1551 C 1747,1517 1575,1487 1350,1462 L 1350,1137 1950,1137 1950,1012 1350,1012 1350,694 1831,694 1831,-110 1676,-110 1676,-32 Z M 868,95 L 1676,93 1676,575 868,575 868,95 Z M 506,1286 C 383,1395 273,1484 176,1555 L 279,1660 C 360,1601 471,1517 611,1407 L 506,1286 Z M 383,822 C 312,893 206,980 63,1083 L 160,1200 C 284,1116 392,1032 483,947 L 383,822 Z M 228,-66 L 95,24 C 149,93 213,196 286,331 359,466 413,580 448,672 L 581,621 C 556,535 507,423 436,286 364,148 295,31 228,-66 Z"
   id="glyph93" />
   <glyph
   unicode="洋"
   horiz-adv-x="1880"
   d="M 609,335 L 609,467 1190,467 1190,795 699,795 699,922 1190,922 1190,1235 659,1235 659,1359 959,1359 C 940,1404 893,1501 820,1651 L 970,1689 C 1003,1616 1052,1506 1115,1359 L 1432,1359 C 1511,1526 1561,1637 1584,1693 L 1745,1651 1586,1359 1925,1359 1925,1235 1355,1235 1355,922 1852,922 1852,795 1355,795 1355,467 1942,467 1942,335 1355,335 1355,-129 1190,-129 1190,335 609,335 Z M 488,1279 C 376,1380 265,1473 156,1557 L 266,1666 C 373,1589 481,1500 592,1400 L 488,1279 Z M 371,824 C 282,911 174,1001 47,1093 L 145,1210 C 304,1093 413,1006 473,951 L 371,824 Z M 216,-64 L 82,32 C 135,97 198,197 271,333 344,468 399,586 438,686 L 573,638 C 545,547 495,431 422,288 349,145 280,27 216,-64 Z"
   id="glyph95" />
   <glyph
   unicode="時"
   horiz-adv-x="1800"
   d="M 1523,-112 L 1266,-112 1247,32 1458,32 C 1481,32 1502,40 1521,56 1539,71 1548,89 1548,109 L 1548,573 775,573 775,696 1548,696 1548,926 750,926 750,1049 1259,1049 1259,1327 819,1327 819,1452 1259,1452 1259,1701 1420,1701 1420,1452 1890,1452 1890,1327 1420,1327 1420,1049 1965,1049 1965,926 1709,926 1709,696 1911,696 1911,573 1709,573 1709,40 C 1709,-5 1691,-42 1654,-70 1617,-98 1574,-112 1523,-112 Z M 298,233 L 298,99 150,99 150,1590 677,1590 677,233 298,233 Z M 528,1471 L 298,1471 298,995 528,995 528,1471 Z M 298,880 L 298,352 528,352 528,880 298,880 Z M 1094,97 C 1043,167 957,278 835,429 L 954,508 C 1045,407 1135,299 1224,182 L 1094,97 Z"
   id="glyph97" />
   <glyph
   unicode="態"
   horiz-adv-x="1906"
   d="M 1032,1339 L 917,1285 C 901,1308 882,1335 860,1364 655,1344 401,1327 96,1312 L 82,1425 C 115,1425 169,1426 245,1428 316,1531 368,1620 401,1695 L 547,1670 C 492,1579 440,1499 390,1432 545,1438 679,1445 792,1454 767,1487 739,1522 708,1559 L 825,1609 C 906,1510 975,1420 1032,1339 Z M 1897,1250 C 1897,1212 1883,1182 1855,1161 1826,1140 1784,1127 1727,1123 1670,1118 1599,1116 1514,1116 1374,1116 1285,1119 1246,1126 1207,1133 1177,1149 1156,1174 1135,1199 1124,1230 1124,1266 L 1124,1680 1270,1680 1270,1534 C 1491,1571 1662,1612 1782,1657 L 1841,1546 C 1714,1503 1524,1465 1270,1432 L 1270,1306 C 1270,1279 1282,1259 1305,1246 1328,1233 1394,1226 1503,1226 1620,1226 1693,1231 1720,1241 1747,1251 1764,1268 1771,1292 1777,1315 1780,1356 1780,1415 L 1897,1400 1897,1250 Z M 921,583 C 921,552 907,523 880,498 853,473 817,460 773,460 L 575,460 560,577 710,577 C 756,577 779,597 779,638 L 779,727 337,727 337,445 197,445 197,1220 921,1220 921,583 Z M 779,1018 L 779,1131 337,1131 337,1018 779,1018 Z M 779,811 L 779,934 337,934 337,811 779,811 Z M 1922,573 C 1922,533 1907,503 1877,482 1846,461 1798,449 1731,446 1664,443 1581,441 1482,441 1351,441 1269,444 1236,451 1203,458 1176,474 1155,500 1134,526 1124,557 1124,592 L 1124,1047 1270,1047 1270,882 C 1528,925 1706,967 1805,1007 L 1868,901 C 1722,858 1523,817 1270,780 L 1270,631 C 1270,605 1281,585 1302,571 1323,556 1391,549 1505,549 1638,549 1718,554 1746,564 1774,574 1791,593 1797,620 1802,647 1805,698 1805,775 L 1922,761 1922,573 Z M 1178,218 L 1059,142 C 994,231 937,300 886,351 L 995,427 C 1053,369 1114,299 1178,218 Z M 1511,71 C 1511,6 1481,-38 1421,-62 1360,-86 1223,-98 1008,-98 947,-98 886,-96 826,-92 765,-89 722,-85 695,-82 668,-79 644,-71 623,-56 601,-41 584,-23 573,-2 562,19 556,43 556,69 L 556,379 708,379 708,115 C 708,84 721,63 748,51 775,39 858,33 997,33 1053,33 1110,35 1169,38 1228,41 1267,43 1286,46 1305,49 1323,57 1339,71 1354,85 1365,109 1370,143 1375,177 1377,225 1377,287 L 1511,272 1511,71 Z M 1993,5 L 1853,-60 C 1766,91 1684,212 1605,303 L 1730,362 C 1819,261 1906,142 1993,5 Z M 395,301 C 370,194 310,70 215,-73 L 77,-25 C 144,70 204,188 257,328 L 395,301 Z"
   id="glyph99" />
   <glyph
   unicode="性"
   horiz-adv-x="1933"
   d="M 684,-79 L 684,49 1281,49 1281,605 790,605 790,728 1281,728 1281,1169 953,1169 C 903,1050 845,943 778,849 L 657,912 C 715,997 772,1108 827,1245 882,1382 919,1505 936,1614 L 1093,1591 C 1073,1501 1042,1401 1001,1292 L 1281,1292 1281,1697 1440,1697 1440,1292 1952,1292 1952,1169 1440,1169 1440,728 1904,728 1904,605 1440,605 1440,49 1996,49 1996,-79 684,-79 Z M 345,-131 L 345,1689 492,1689 492,-131 345,-131 Z M 609,1098 L 544,1373 661,1400 726,1129 609,1098 Z M 159,747 L 30,774 C 68,921 92,1107 101,1332 L 235,1327 C 232,1250 223,1150 208,1025 192,900 176,807 159,747 Z"
   id="glyph101" />
   <glyph
   unicode="局"
   horiz-adv-x="1853"
   d="M 1284,-115 L 1270,22 1506,22 C 1596,22 1655,56 1683,123 1711,190 1725,343 1725,584 L 1725,841 407,841 C 393,432 297,114 119,-113 L 14,-36 C 87,72 146,208 189,371 232,534 254,705 254,883 L 254,1614 1800,1614 1800,1167 409,1167 409,954 1884,954 1884,689 C 1884,611 1881,511 1875,388 1868,265 1860,177 1850,122 1840,67 1824,24 1803,-7 1782,-38 1755,-63 1723,-80 1690,-98 1655,-109 1618,-112 1581,-115 1539,-117 1493,-117 1447,-117 1377,-116 1284,-115 Z M 409,1280 L 1648,1280 1648,1504 409,1504 409,1280 Z M 752,200 L 752,123 603,123 603,662 1453,662 1453,200 752,200 Z M 1301,559 L 752,559 752,309 1301,309 1301,559 Z"
   id="glyph103" />
   <glyph
   unicode="合"
   horiz-adv-x="2012"
   d="M 1951,878 C 1809,937 1648,1033 1469,1167 1289,1301 1139,1440 1020,1584 927,1456 793,1324 618,1188 443,1051 265,944 86,866 L 19,976 C 192,1059 363,1168 530,1301 697,1434 821,1562 903,1684 L 1124,1684 C 1229,1547 1371,1415 1548,1286 1725,1157 1886,1063 2033,1006 L 1951,878 Z M 1548,943 L 506,943 506,1064 1548,1064 1548,943 Z M 1580,-10 L 452,-10 452,-110 295,-110 295,669 1738,669 1738,-104 1580,-104 1580,-10 Z M 452,111 L 1580,111 1580,548 452,548 452,111 Z"
   id="glyph105" />
   <glyph
   unicode="低"
   horiz-adv-x="1985"
   d="M 325,-129 L 325,954 C 259,832 187,725 110,634 L 16,713 C 251,1070 402,1400 467,1703 L 624,1678 C 579,1521 507,1334 408,1118 L 478,1118 478,-129 325,-129 Z M 582,187 L 561,316 C 588,320 641,329 721,343 L 721,1528 C 828,1529 1003,1547 1247,1582 1490,1617 1664,1651 1768,1684 L 1843,1559 C 1774,1540 1645,1517 1456,1489 1455,1432 1454,1383 1454,1340 1454,1246 1456,1155 1461,1066 L 1933,1066 1933,941 1469,941 C 1490,680 1540,471 1617,312 1694,153 1756,73 1802,73 1832,73 1851,95 1858,140 1865,185 1872,268 1881,389 L 2006,371 C 1999,193 1985,70 1964,1 1943,-68 1897,-102 1827,-102 1790,-102 1753,-91 1716,-68 1679,-45 1636,-3 1585,59 1534,120 1489,200 1448,297 1407,394 1376,504 1356,627 1336,750 1322,854 1314,941 L 874,941 874,370 C 1068,407 1205,435 1286,456 L 1294,331 C 1235,310 997,262 582,187 Z M 874,1419 L 874,1066 1306,1066 C 1302,1155 1300,1289 1300,1467 1121,1443 979,1427 874,1419 Z M 684,-66 L 684,61 1451,61 1451,-66 684,-66 Z"
   id="glyph107" />
   <glyph
   unicode="位"
   horiz-adv-x="1985"
   d="M 354,-129 L 354,925 C 271,784 188,668 107,577 L 9,659 C 121,804 225,968 320,1151 415,1334 488,1519 539,1705 L 696,1676 C 649,1517 570,1331 459,1118 L 512,1118 512,-129 354,-129 Z M 655,1217 L 655,1348 1212,1348 1212,1699 1373,1699 1373,1348 1973,1348 1973,1217 655,1217 Z M 613,-79 L 613,57 1340,57 C 1384,176 1439,350 1504,581 1569,812 1614,995 1639,1131 L 1802,1102 C 1690,645 1588,296 1495,57 L 2004,57 2004,-79 613,-79 Z M 964,193 C 946,304 916,453 874,642 831,831 798,963 774,1039 L 918,1072 C 947,991 1011,709 1110,226 L 964,193 Z"
   id="glyph109" />
   <glyph
   unicode="亜"
   horiz-adv-x="1879"
   d="M 76,-76 L 76,55 690,55 690,452 218,452 218,1179 690,1179 690,1497 128,1497 128,1624 1926,1624 1926,1497 1342,1497 1342,1179 1822,1179 1822,452 1342,452 1342,55 1966,55 1966,-76 76,-76 Z M 849,1497 L 849,1179 1183,1179 1183,1497 849,1497 Z M 1663,1060 L 1342,1060 1342,571 1663,571 1663,1060 Z M 1183,1060 L 849,1060 849,571 1183,571 1183,1060 Z M 690,1060 L 376,1060 376,571 690,571 690,1060 Z M 849,55 L 1183,55 1183,452 849,452 849,55 Z"
   id="glyph111" />
   <glyph
   unicode="丹"
   horiz-adv-x="1906"
   d="M 1730,1616 L 1730,806 1985,806 1985,683 1730,683 1730,75 C 1730,23 1712,-19 1675,-52 1638,-85 1591,-101 1534,-101 L 1218,-101 1199,45 1477,45 C 1540,45 1571,70 1571,121 L 1571,683 510,683 C 491,382 390,114 207,-122 L 96,-42 C 253,167 339,408 355,683 L 65,683 65,806 360,806 360,1616 1730,1616 Z M 1571,806 L 1571,1491 516,1491 516,806 1571,806 Z M 1101,904 C 1006,1035 894,1168 763,1301 L 884,1395 C 975,1304 1092,1173 1235,1002 L 1101,904 Z"
   id="glyph113" />
   <glyph
   unicode="ー"
   horiz-adv-x="1642"
   d="M 1842,662 L 188,662 188,810 1842,810 1842,662 Z"
   id="glyph115" />
   <glyph
   unicode="・"
   horiz-adv-x="372"
   d="M 842,731 C 842,782 860,825 896,861 932,897 975,915 1026,915 1077,915 1120,897 1156,861 1192,825 1210,782 1210,731 1210,680 1192,637 1156,601 1120,565 1077,547 1026,547 975,547 932,565 896,601 860,637 842,680 842,731 Z"
   id="glyph117" />
   <glyph
   unicode="ン"
   horiz-adv-x="1694"
   d="M 1067,1159 L 954,1028 C 716,1175 479,1298 242,1399 L 328,1524 C 577,1431 824,1309 1067,1159 Z M 1939,905 C 1827,710 1682,541 1503,399 1324,256 1139,150 946,81 753,11 525,-38 264,-66 L 229,88 C 446,110 641,150 813,208 985,265 1131,335 1251,417 1370,498 1471,579 1553,660 1635,740 1718,850 1802,991 L 1939,905 Z"
   id="glyph119" />
   <glyph
   unicode="レ"
   horiz-adv-x="1588"
   d="M 1970,856 C 1847,671 1641,487 1353,306 1064,125 766,1 457,-66 L 348,18 348,1562 518,1562 518,117 C 787,183 1042,294 1282,449 1521,604 1710,773 1849,956 L 1970,856 Z"
   id="glyph121" />
   <glyph
   unicode="ル"
   horiz-adv-x="2012"
   d="M 2046,692 C 1961,510 1829,352 1651,217 1472,82 1296,-10 1122,-58 L 1049,10 1049,1567 1217,1567 1217,155 C 1327,188 1447,255 1576,358 1705,461 1820,601 1921,780 L 2046,692 Z M 623,1048 C 623,891 616,763 602,664 588,565 556,468 507,373 457,278 394,191 319,112 244,33 163,-29 76,-74 L 2,53 C 85,104 162,172 233,256 304,340 358,439 396,554 434,669 453,844 453,1081 L 453,1503 623,1503 623,1048 Z"
   id="glyph123" />
   <glyph
   unicode="リ"
   horiz-adv-x="1324"
   d="M 1710,803 C 1710,646 1673,504 1599,377 1525,249 1403,144 1232,63 1061,-18 838,-68 565,-86 L 526,59 C 878,87 1134,165 1295,292 1456,419 1536,603 1536,842 L 1536,1601 1710,1601 1710,803 Z M 547,557 L 373,557 373,1567 547,1567 547,557 Z"
   id="glyph125" />
   <glyph
   unicode="ラ"
   horiz-adv-x="1642"
   d="M 1772,1384 L 287,1384 287,1524 1772,1524 1772,1384 Z M 1841,1030 C 1834,910 1823,817 1809,751 1795,685 1759,593 1702,475 1644,356 1561,257 1452,176 1343,95 1208,32 1046,-13 884,-58 693,-84 473,-90 L 444,55 C 823,64 1112,136 1310,272 1507,407 1624,613 1659,889 L 207,889 207,1030 1841,1030 Z"
   id="glyph127" />
   <glyph
   unicode="ム"
   horiz-adv-x="1879"
   d="M 1709,107 C 1330,47 789,0 84,-33 L 59,125 C 118,126 190,128 277,131 368,306 474,544 593,843 712,1142 799,1389 854,1585 L 1034,1552 C 959,1326 866,1076 756,802 645,528 546,307 457,138 1038,170 1432,202 1641,235 1528,439 1391,649 1229,866 L 1362,940 C 1558,708 1760,390 1968,-15 L 1792,-74 C 1766,-11 1738,49 1709,107 Z"
   id="glyph129" />
   <glyph
   unicode="ミ"
   horiz-adv-x="1641"
   d="M 1843,1341 L 1782,1194 C 1391,1303 928,1382 393,1433 L 426,1571 C 640,1554 851,1529 1058,1498 1265,1467 1527,1414 1843,1341 Z M 1655,772 L 1610,622 C 1414,678 1228,721 1052,752 875,783 667,808 428,827 L 455,966 C 884,933 1284,868 1655,772 Z M 1882,53 L 1810,-101 C 1359,39 826,134 213,184 L 242,325 C 364,320 522,306 717,282 911,258 1090,230 1255,198 1420,166 1629,118 1882,53 Z"
   id="glyph131" />
   <glyph
   unicode="マ"
   horiz-adv-x="1853"
   d="M 1493,-2 L 1335,-92 C 1098,230 783,517 391,770 L 502,876 C 679,770 839,654 983,529 1335,787 1592,1052 1753,1323 L 123,1323 123,1464 1915,1464 1991,1395 C 1795,1036 1496,713 1095,427 1198,328 1331,185 1493,-2 Z"
   id="glyph133" />
   <glyph
   unicode="ベ"
   horiz-adv-x="2012"
   d="M 2036,215 L 1935,65 C 1750,260 1553,462 1346,670 1138,878 1003,1010 941,1066 879,1122 844,1152 836,1156 828,1159 820,1161 812,1161 806,1161 797,1159 786,1154 775,1149 753,1127 720,1086 687,1045 581,906 400,669 L 125,311 10,424 C 57,478 119,555 194,655 L 616,1216 C 660,1273 721,1301 799,1301 833,1301 868,1295 904,1282 939,1269 983,1239 1035,1190 L 1337,904 C 1486,763 1719,533 2036,215 Z M 1851,1233 L 1737,1186 C 1694,1287 1646,1379 1593,1462 L 1698,1511 C 1751,1430 1802,1337 1851,1233 Z M 1561,1171 L 1446,1120 C 1399,1227 1350,1320 1300,1401 L 1409,1450 C 1468,1359 1518,1266 1561,1171 Z"
   id="glyph135" />
   <glyph
   unicode="バ"
   horiz-adv-x="1985"
   d="M 1970,90 L 1841,-23 C 1729,92 1628,240 1538,421 1447,602 1384,805 1349,1028 1314,1251 1296,1428 1296,1558 L 1462,1558 1462,1542 C 1462,1255 1502,987 1582,738 1662,488 1791,272 1970,90 Z M 766,1546 C 756,1153 695,834 583,589 471,343 312,133 106,-41 L 6,67 C 83,136 150,206 208,278 266,350 317,428 360,511 403,594 443,679 478,767 513,855 540,964 560,1094 579,1223 591,1374 596,1546 L 766,1546 Z M 2019,1462 L 1905,1415 C 1862,1516 1814,1608 1761,1691 L 1866,1741 C 1917,1662 1968,1569 2019,1462 Z M 1735,1401 L 1620,1349 C 1571,1460 1523,1553 1475,1630 L 1583,1679 C 1642,1587 1693,1494 1735,1401 Z"
   id="glyph137" />
   <glyph
   unicode="ネ"
   horiz-adv-x="2012"
   d="M 1061,-119 L 887,-119 887,653 C 662,532 389,424 68,328 L 10,465 C 321,555 608,671 871,813 1133,955 1327,1102 1452,1255 L 201,1255 201,1390 883,1390 883,1655 1053,1655 1053,1390 1628,1390 1706,1315 C 1565,1119 1350,931 1061,750 L 1061,-119 Z M 2036,430 L 1927,301 C 1768,407 1536,526 1231,657 L 1323,772 C 1595,667 1833,553 2036,430 Z"
   id="glyph139" />
   <glyph
   unicode="ニ"
   horiz-adv-x="1853"
   d="M 1829,1225 L 229,1225 229,1372 1829,1372 1829,1225 Z M 1954,45 L 84,45 84,205 1954,205 1954,45 Z"
   id="glyph141" />
   <glyph
   unicode="ナ"
   horiz-adv-x="1853"
   d="M 1192,829 C 1192,339 926,30 393,-98 L 326,41 C 567,100 742,195 851,327 960,458 1014,603 1014,760 L 1014,997 92,997 92,1147 1014,1147 1014,1636 1192,1636 1192,1147 1962,1147 1962,997 1192,997 1192,829 Z"
   id="glyph143" />
   <glyph
   unicode="ド"
   horiz-adv-x="1298"
   d="M 1903,622 L 1798,483 C 1659,576 1494,667 1301,756 1108,845 937,913 786,958 L 786,-103 608,-103 608,1648 788,1648 788,1112 C 1183,993 1555,830 1903,622 Z M 1810,1319 L 1696,1272 C 1653,1373 1605,1465 1552,1548 L 1657,1597 C 1710,1516 1761,1423 1810,1319 Z M 1520,1257 L 1405,1206 C 1356,1317 1308,1410 1260,1487 L 1368,1536 C 1427,1445 1477,1352 1520,1257 Z"
   id="glyph145" />
   <glyph
   unicode="ト"
   horiz-adv-x="1297"
   d="M 1944,622 L 1839,483 C 1700,576 1535,667 1342,756 1149,845 978,913 827,958 L 827,-103 649,-103 649,1648 829,1648 829,1112 C 1224,993 1596,830 1944,622 Z"
   id="glyph147" />
   <glyph
   unicode="テ"
   horiz-adv-x="1853"
   d="M 1837,1372 L 205,1372 205,1511 1837,1511 1837,1372 Z M 1174,758 C 1174,590 1146,453 1091,347 1035,241 947,151 827,78 707,4 554,-52 367,-90 L 313,51 C 522,96 688,170 811,273 934,376 995,525 995,721 L 995,825 88,825 88,971 1960,971 1960,825 1174,825 1174,758 Z"
   id="glyph149" />
   <glyph
   unicode="ッ"
   horiz-adv-x="1456"
   d="M 1145,665 L 987,612 C 941,775 860,965 745,1184 L 885,1239 C 960,1100 1007,1006 1026,958 1045,909 1084,812 1145,665 Z M 1710,1175 C 1660,759 1536,452 1338,255 1139,58 866,-65 518,-113 L 473,20 C 853,75 1121,206 1277,413 1433,620 1523,879 1546,1190 L 1710,1175 Z M 659,569 L 502,518 C 445,703 365,894 260,1089 L 399,1141 C 456,1041 497,965 521,912 545,859 591,745 659,569 Z"
   id="glyph151" />
   <glyph
   unicode="チ"
   horiz-adv-x="1853"
   d="M 1178,766 C 1177,632 1164,525 1140,446 1116,367 1069,288 999,210 928,131 841,67 737,16 633,-35 518,-72 391,-96 L 330,37 C 422,54 512,81 600,119 687,157 766,210 835,278 904,345 950,414 973,484 995,554 1006,648 1006,766 L 94,766 94,911 1006,911 1006,1316 C 829,1295 594,1279 301,1268 L 276,1407 C 535,1412 793,1433 1050,1468 1307,1503 1511,1548 1663,1603 L 1763,1472 C 1640,1425 1445,1381 1178,1340 L 1177,911 1968,911 1968,766 1178,766 Z"
   id="glyph153" />
   <glyph
   unicode="タ"
   horiz-adv-x="1774"
   d="M 985,1618 C 964,1550 938,1485 909,1423 L 1890,1423 C 1885,1326 1878,1256 1871,1213 1849,1088 1817,972 1774,864 1731,755 1674,651 1604,551 1533,451 1445,358 1338,272 1231,186 1106,112 965,51 824,-11 667,-60 494,-96 L 446,41 C 839,116 1146,273 1368,513 1169,622 928,725 647,823 L 725,942 C 929,879 1178,779 1471,641 1597,820 1675,1037 1704,1290 L 838,1290 C 754,1145 652,1013 532,894 411,775 291,682 172,614 L 84,723 C 264,838 419,980 548,1150 677,1319 766,1483 817,1640 L 985,1618 Z"
   id="glyph155" />
   <glyph
   unicode="ス"
   horiz-adv-x="1933"
   d="M 1993,16 L 1851,-94 C 1668,94 1419,321 1102,588 771,269 441,45 113,-86 L 37,41 C 312,153 585,331 858,574 1130,817 1321,1082 1430,1370 L 289,1370 289,1509 1610,1509 1651,1472 C 1558,1189 1408,931 1202,698 1406,539 1670,311 1993,16 Z"
   id="glyph157" />
   <glyph
   unicode="シ"
   horiz-adv-x="1827"
   d="M 1217,1315 L 1133,1173 C 967,1253 708,1343 356,1442 L 424,1564 C 518,1545 643,1512 799,1464 954,1416 1094,1366 1217,1315 Z M 1008,819 L 926,674 C 719,764 459,849 147,928 L 209,1059 C 434,1016 701,936 1008,819 Z M 1972,903 C 1817,631 1594,411 1302,243 1009,75 672,-27 291,-64 L 250,84 C 477,112 678,156 854,216 1030,276 1178,347 1297,429 1416,510 1513,588 1588,661 1663,734 1743,839 1829,975 L 1972,903 Z"
   id="glyph159" />
   <glyph
   unicode="コ"
   horiz-adv-x="1562"
   d="M 1759,-4 L 188,-4 188,139 1587,139 1587,1304 207,1304 207,1442 1759,1442 1759,-4 Z"
   id="glyph161" />
   <glyph
   unicode="ケ"
   horiz-adv-x="1959"
   d="M 1485,1083 C 1465,737 1363,469 1179,279 994,89 719,-33 354,-88 L 303,51 C 648,105 897,218 1052,389 1206,560 1290,791 1304,1083 L 612,1083 C 488,902 323,748 117,622 L 29,735 C 198,846 336,980 444,1137 552,1294 627,1461 670,1638 L 850,1616 C 821,1489 771,1360 701,1231 L 2019,1231 2019,1083 1485,1083 Z"
   id="glyph163" />
   <glyph
   unicode="グ"
   horiz-adv-x="1959"
   d="M 942,1614 C 923,1551 895,1482 859,1409 L 1829,1409 1821,1270 C 1819,1230 1802,1152 1770,1037 1749,963 1724,889 1694,814 1663,739 1623,662 1574,582 1525,502 1465,427 1396,356 1326,285 1245,221 1152,163 1059,104 952,52 831,7 709,-38 577,-75 434,-103 L 375,41 C 760,116 1053,253 1254,454 1455,655 1581,924 1632,1263 L 780,1263 C 701,1134 604,1011 488,896 371,780 250,685 123,612 L 29,723 C 206,835 360,978 491,1152 622,1325 711,1487 758,1638 L 942,1614 Z M 2011,1528 L 1896,1481 C 1851,1585 1804,1677 1753,1757 L 1858,1806 C 1911,1725 1962,1632 2011,1528 Z M 1718,1491 L 1604,1440 C 1561,1538 1513,1629 1460,1714 L 1569,1763 C 1628,1672 1677,1581 1718,1491 Z"
   id="glyph165" />
   <glyph
   unicode="ガ"
   horiz-adv-x="1721"
   d="M 926,1640 L 926,1255 1802,1255 1802,1182 C 1802,951 1799,794 1792,711 1785,628 1774,540 1761,449 1748,358 1729,279 1705,212 1680,145 1652,94 1621,58 1589,21 1549,-6 1500,-25 1451,-44 1382,-54 1295,-54 1200,-54 1080,-41 936,-15 L 940,135 C 1060,110 1171,98 1273,98 1319,98 1364,105 1408,120 1451,134 1489,170 1522,227 1555,284 1581,381 1600,520 1619,658 1629,814 1629,987 L 1628,1114 913,1114 C 892,809 815,560 681,365 546,170 370,14 152,-101 L 68,18 C 277,145 437,296 547,470 656,643 722,858 743,1114 L 152,1114 152,1255 750,1255 750,1640 926,1640 Z M 1802,1452 L 1688,1405 C 1645,1506 1597,1598 1544,1681 L 1649,1730 C 1702,1649 1753,1556 1802,1452 Z M 1511,1390 L 1397,1339 C 1350,1446 1301,1539 1251,1620 L 1360,1669 C 1417,1582 1467,1489 1511,1390 Z"
   id="glyph167" />
   <glyph
   unicode="カ"
   horiz-adv-x="1721"
   d="M 973,1640 L 973,1259 1849,1259 1849,1182 C 1849,950 1846,793 1839,711 1832,628 1822,541 1809,449 1795,357 1776,278 1752,212 1727,145 1699,94 1668,57 1636,20 1595,-8 1545,-27 1495,-46 1426,-56 1339,-56 1246,-56 1127,-43 983,-17 L 987,135 C 1107,110 1218,98 1320,98 1368,98 1414,106 1458,121 1501,136 1539,177 1572,243 1605,309 1630,407 1649,536 1667,665 1676,815 1676,988 L 1675,1116 961,1116 C 940,809 863,559 728,366 593,173 417,19 199,-96 L 115,18 C 320,142 479,289 591,460 703,630 769,849 790,1116 L 199,1116 199,1259 797,1259 797,1640 973,1640 Z"
   id="glyph169" />
   <glyph
   unicode="オ"
   horiz-adv-x="1880"
   d="M 1350,994 C 1223,787 1051,595 836,418 621,240 398,104 168,10 L 92,135 C 331,246 552,389 755,562 958,735 1114,918 1223,1112 L 215,1112 215,1257 1346,1257 1346,1628 1526,1628 1526,1257 1972,1257 1972,1112 1526,1112 1526,-92 1350,-92 1350,994 Z"
   id="glyph171" />
   <glyph
   unicode="ウ"
   horiz-adv-x="1668"
   d="M 1864,1276 C 1864,1097 1853,947 1831,828 1809,708 1777,605 1736,518 1694,431 1641,353 1576,286 1511,218 1429,158 1330,105 1230,52 1114,8 982,-25 849,-59 701,-83 537,-98 L 496,49 C 658,65 796,88 911,118 1026,147 1129,186 1222,235 1314,283 1384,332 1432,382 1499,453 1547,517 1575,575 1603,632 1628,714 1649,819 1670,924 1681,1041 1681,1171 L 1680,1241 369,1241 369,680 195,680 195,1376 938,1376 938,1638 1120,1638 1120,1376 1864,1376 1864,1276 Z"
   id="glyph173" />
   <glyph
   unicode="イ"
   horiz-adv-x="1721"
   d="M 1278,-96 L 1100,-96 1100,900 C 807,745 495,628 164,551 L 111,688 C 544,799 885,939 1135,1107 1385,1275 1573,1449 1698,1628 L 1862,1564 C 1741,1383 1546,1200 1278,1016 L 1278,-96 Z"
   id="glyph175" />
   <glyph
   unicode="ィ"
   horiz-adv-x="1430"
   d="M 1169,-123 L 1006,-123 1006,685 C 765,558 513,463 252,401 L 201,530 C 514,606 780,715 1000,856 1220,997 1384,1148 1493,1308 L 1651,1249 C 1574,1138 1493,1046 1408,974 1323,902 1243,841 1169,792 L 1169,-123 Z"
   id="glyph177" />
   <glyph
   unicode="ア"
   horiz-adv-x="1826"
   d="M 1999,1472 C 1988,1430 1952,1351 1893,1236 1833,1120 1742,1004 1619,887 1496,770 1390,686 1300,637 L 1210,745 C 1345,832 1464,938 1569,1065 1673,1192 1741,1296 1772,1378 L 162,1378 162,1519 1948,1519 1999,1472 Z M 1059,1194 C 1059,955 1046,769 1019,636 992,503 939,383 860,277 781,170 682,85 561,21 440,-43 341,-82 262,-96 L 201,35 C 448,105 622,213 723,360 824,506 877,692 883,917 L 885,1194 1059,1194 Z"
   id="glyph179" />
   <glyph
   unicode="ん"
   horiz-adv-x="1853"
   d="M 1004,1540 C 919,1369 795,1112 633,768 723,827 806,857 882,857 953,856 1009,835 1050,794 1091,753 1119,675 1134,562 1149,401 1162,294 1175,241 1188,188 1213,147 1251,118 1288,89 1341,75 1409,75 1620,75 1760,277 1829,680 L 1972,635 C 1917,351 1844,163 1752,71 1659,-22 1540,-68 1393,-68 1246,-69 1147,-29 1096,52 1045,133 1013,242 1002,381 L 984,564 C 979,611 965,651 941,682 917,713 885,729 845,729 778,729 710,700 640,641 570,582 518,515 485,438 451,361 375,191 256,-70 L 117,-22 432,694 850,1589 1004,1540 Z"
   id="glyph181" />
   <glyph
   unicode="ろ"
   horiz-adv-x="1641"
   d="M 518,-43 L 531,96 C 655,73 769,62 873,62 1104,61 1296,98 1447,171 1598,244 1673,349 1674,487 1674,606 1630,697 1543,760 1456,823 1337,854 1187,854 1042,854 895,826 747,769 598,712 429,608 238,455 L 160,576 862,1056 1368,1407 379,1407 379,1538 1561,1538 1643,1432 C 1564,1372 1444,1291 1284,1189 1119,1083 999,1003 924,948 L 930,938 C 1053,966 1147,980 1211,980 1394,980 1543,937 1660,851 1777,765 1835,646 1835,494 1835,306 1751,163 1582,66 1413,-31 1183,-80 890,-80 761,-80 637,-68 518,-43 Z"
   id="glyph183" />
   <glyph
   unicode="は"
   horiz-adv-x="1773"
   d="M 2001,182 L 1911,59 C 1846,118 1731,200 1565,307 L 1565,246 C 1565,145 1532,69 1465,19 1398,-32 1284,-57 1123,-57 1014,-57 921,-31 844,22 766,75 727,145 727,234 727,325 764,398 838,455 912,511 1001,539 1106,539 1209,539 1309,527 1406,502 L 1406,1093 703,1093 703,1228 1406,1228 1406,1595 1563,1595 1563,1228 1936,1228 1936,1093 1563,1093 1563,447 C 1718,384 1864,296 2001,182 Z M 1415,246 L 1415,367 C 1335,401 1233,418 1109,418 1040,417 983,402 939,371 894,340 872,297 872,242 872,188 898,146 949,116 1000,85 1061,70 1132,70 1321,70 1415,129 1415,246 Z M 469,-20 L 320,-53 C 252,166 218,404 218,661 218,941 264,1243 355,1567 L 508,1540 C 417,1239 371,951 371,678 371,437 404,204 469,-20 Z"
   id="glyph185" />
   <glyph
   unicode="だ"
   horiz-adv-x="1748"
   d="M 715,1632 C 715,1557 712,1468 705,1364 L 1424,1364 1424,1231 694,1231 C 670,974 613,721 524,470 435,219 344,38 252,-74 L 133,4 C 230,141 317,326 394,557 471,788 518,1012 536,1231 L 172,1231 172,1364 545,1364 C 549,1450 551,1539 551,1632 L 715,1632 Z M 1856,1040 L 1854,909 C 1821,910 1791,911 1764,911 1525,911 1263,897 977,870 L 967,1002 C 1228,1029 1485,1043 1740,1043 1785,1043 1823,1042 1856,1040 Z M 1915,0 C 1809,-18 1666,-27 1485,-27 1332,-27 1213,-21 1126,-8 1039,5 970,34 920,79 870,124 845,180 845,245 845,340 883,429 959,514 L 1071,451 C 1022,386 998,323 998,262 997,221 1020,185 1066,155 1111,125 1239,110 1449,110 1609,110 1762,119 1907,137 L 1915,0 Z M 1905,1471 L 1790,1424 C 1746,1527 1698,1619 1647,1700 L 1753,1751 C 1799,1680 1850,1586 1905,1471 Z M 1614,1409 L 1499,1358 C 1452,1466 1403,1560 1354,1639 L 1463,1688 C 1520,1598 1571,1505 1614,1409 Z"
   id="glyph187" />
   <glyph
   unicode="ず"
   horiz-adv-x="1906"
   d="M 1105,856 C 1067,931 988,969 867,969 808,968 755,944 710,896 664,848 641,794 641,735 641,671 659,619 696,580 732,540 781,520 843,520 921,520 984,546 1031,597 1078,648 1103,715 1104,799 L 1105,856 Z M 1895,1266 L 1264,1266 1264,877 C 1307,800 1329,694 1329,559 1329,383 1264,235 1135,116 1005,-4 845,-70 654,-82 L 613,43 C 772,54 907,109 1016,208 1125,307 1180,429 1180,575 1180,600 1179,622 1176,642 1159,565 1119,504 1058,460 997,415 923,393 838,393 740,393 657,424 590,486 523,547 489,625 490,718 490,825 528,915 603,987 678,1058 771,1094 882,1094 965,1094 1038,1070 1102,1021 L 1102,1262 101,1262 101,1397 1102,1397 1102,1632 1264,1632 1264,1399 1609,1399 C 1560,1509 1513,1600 1469,1671 L 1577,1720 C 1633,1633 1684,1540 1729,1440 L 1637,1399 1895,1399 1895,1266 Z M 2024,1478 L 1909,1431 C 1864,1534 1817,1626 1766,1707 L 1872,1758 C 1918,1687 1969,1593 2024,1478 Z"
   id="glyph189" />
   <glyph
   unicode="す"
   horiz-adv-x="1773"
   d="M 1166,856 C 1128,931 1049,969 928,969 869,968 817,944 771,896 725,848 702,794 703,735 703,670 721,618 757,579 793,540 842,520 904,520 983,520 1046,546 1093,597 1140,648 1164,716 1166,799 L 1166,856 Z M 1956,1262 L 1325,1262 1325,877 C 1369,800 1391,694 1391,559 1390,383 1325,235 1196,116 1066,-4 906,-70 715,-82 L 674,43 C 834,54 969,109 1078,208 1187,307 1241,429 1241,575 1241,600 1240,622 1237,642 1220,565 1181,504 1120,460 1059,415 985,393 899,393 802,393 719,424 652,486 585,547 551,625 551,718 551,825 589,915 665,987 740,1058 833,1094 943,1094 1026,1094 1099,1070 1164,1021 L 1164,1262 162,1262 162,1393 1164,1393 1164,1632 1325,1632 1325,1393 1956,1393 1956,1262 Z"
   id="glyph191" />
   <glyph
   unicode="う"
   horiz-adv-x="1509"
   d="M 1559,1462 L 1524,1321 C 1262,1372 884,1403 391,1413 L 398,1548 C 545,1548 703,1543 872,1533 1041,1522 1270,1499 1559,1462 Z M 563,-80 L 535,51 C 830,72 1059,117 1220,187 1381,257 1488,332 1541,413 1594,493 1620,588 1620,698 1620,793 1582,868 1506,923 1430,977 1333,1004 1215,1004 1152,1004 1083,1001 1008,994 933,987 871,979 821,971 771,963 589,930 275,873 L 248,1016 639,1080 C 762,1101 871,1115 965,1124 1058,1133 1142,1137 1217,1137 1388,1137 1524,1098 1626,1021 1727,943 1778,833 1778,690 1778,450 1671,265 1457,134 1242,3 944,-68 563,-80 Z"
   id="glyph193" />
   <glyph
   unicode="、"
   horiz-adv-x="424"
   d="M 612,-10 L 475,-98 C 388,45 285,187 164,328 L 281,410 C 427,237 537,97 612,-10 Z"
   id="glyph195" />
   <glyph
   unicode="”"
   horiz-adv-x="795"
   d="M 904,1574 L 634,1009 508,1009 676,1574 904,1574 Z M 514,1574 L 244,1009 118,1009 286,1574 514,1574 Z"
   id="glyph197" />
   <glyph
   unicode="y"
   horiz-adv-x="1086"
   d="M 1127,1130 L 464,-417 276,-417 486,49 31,1130 222,1130 582,270 943,1130 1127,1130 Z"
   id="glyph199" />
   <glyph
   unicode="u"
   horiz-adv-x="927"
   d="M 1096,0 L 920,0 920,136 C 783,25 652,-31 527,-31 409,-31 319,6 256,79 193,152 162,256 162,392 L 162,1130 338,1130 338,495 C 338,350 358,253 397,206 436,159 499,135 587,135 691,135 802,183 920,280 L 920,1130 1096,1130 1096,0 Z"
   id="glyph201" />
   <glyph
   unicode="r"
   horiz-adv-x="689"
   d="M 170,0 L 170,1130 346,1130 346,956 C 487,1072 618,1130 737,1130 779,1130 821,1127 864,1120 L 864,936 857,936 C 802,949 746,956 689,956 576,956 461,908 346,812 L 346,0 170,0 Z"
   id="glyph203" />
   <glyph
   unicode="p"
   horiz-adv-x="980"
   d="M 346,65 L 346,-417 170,-417 170,1130 346,1130 346,1005 C 475,1110 600,1162 721,1162 854,1162 960,1110 1039,1007 1118,903 1157,760 1157,579 1157,401 1109,256 1014,145 919,34 801,-22 660,-22 553,-22 448,7 346,65 Z M 346,862 L 346,202 C 446,157 539,135 624,135 734,135 820,173 882,250 944,326 975,434 975,573 975,855 873,996 670,996 562,996 454,951 346,862 Z"
   id="glyph205" />
   <glyph
   unicode="o"
   horiz-adv-x="1033"
   d="M 608,-31 C 447,-31 320,22 227,129 134,235 87,380 87,564 87,748 134,894 228,1001 322,1108 449,1162 608,1162 767,1162 894,1109 988,1002 1082,895 1129,749 1129,564 1129,379 1082,233 989,128 895,22 768,-31 608,-31 Z M 608,1012 C 499,1012 416,974 357,897 298,820 269,709 269,564 269,421 298,311 357,234 416,157 499,119 608,119 717,119 800,157 859,234 918,311 947,421 947,564 947,863 834,1012 608,1012 Z"
   id="glyph207" />
   <glyph
   unicode="n"
   horiz-adv-x="927"
   d="M 1104,0 L 928,0 928,633 C 928,780 909,877 870,925 831,972 768,996 679,996 574,996 463,947 346,850 L 346,0 170,0 170,1130 346,1130 346,994 C 479,1106 610,1162 739,1162 856,1162 946,1126 1009,1053 1072,980 1104,874 1104,736 L 1104,0 Z"
   id="glyph209" />
   <glyph
   unicode="l"
   horiz-adv-x="186"
   d="M 348,0 L 172,0 172,1574 348,1574 348,0 Z"
   id="glyph211" />
   <glyph
   unicode="i"
   horiz-adv-x="186"
   d="M 359,1356 L 160,1356 160,1539 359,1539 359,1356 Z M 348,0 L 172,0 172,1130 348,1130 348,0 Z"
   id="glyph213" />
   <glyph
   unicode="e"
   horiz-adv-x="1007"
   d="M 267,682 L 930,682 C 925,907 822,1019 621,1019 520,1019 438,989 375,929 312,869 276,787 267,682 Z M 680,-26 C 492,-26 346,25 243,127 139,228 87,372 87,558 87,743 137,890 236,999 335,1108 467,1162 631,1162 780,1162 896,1117 979,1028 1061,939 1102,811 1102,646 L 1102,549 267,549 C 267,413 304,309 378,236 451,163 553,126 683,126 812,126 942,171 1071,261 L 1079,261 1079,70 C 918,6 785,-26 680,-26 Z"
   id="glyph215" />
   <glyph
   unicode="b"
   horiz-adv-x="980"
   d="M 347,60 L 332,0 170,0 170,1574 346,1574 346,1006 C 475,1110 600,1162 721,1162 854,1162 960,1110 1039,1005 1118,900 1157,757 1157,575 1157,395 1109,249 1014,137 919,25 801,-31 660,-31 550,-31 446,-1 347,60 Z M 346,863 L 346,193 C 446,148 539,126 624,126 735,126 821,165 883,242 944,319 975,429 975,570 975,854 873,996 670,996 562,996 454,952 346,863 Z"
   id="glyph217" />
   <glyph
   unicode="T"
   horiz-adv-x="1271"
   d="M 558,0 L 558,1345 23,1345 23,1507 1279,1507 1279,1345 744,1345 744,0 558,0 Z"
   id="glyph219" />
   <glyph
   unicode="S"
   horiz-adv-x="1112"
   d="M 647,-27 C 478,-27 300,15 114,99 L 114,326 127,326 C 280,195 454,130 649,130 769,130 863,155 932,204 1000,253 1034,318 1034,399 1034,462 1020,511 991,547 962,582 911,610 839,630 L 503,698 C 378,724 284,771 220,840 155,908 123,997 123,1106 123,1230 173,1332 273,1413 373,1494 503,1534 664,1534 832,1534 1000,1497 1168,1423 L 1168,1204 1154,1204 C 1015,1319 852,1377 664,1377 560,1377 476,1354 413,1308 349,1262 317,1202 317,1127 317,1002 390,922 535,886 619,871 713,852 816,829 919,806 992,782 1037,757 1081,732 1117,703 1145,671 1172,639 1193,603 1207,562 1220,521 1227,476 1227,427 1227,296 1174,188 1068,102 962,16 822,-27 647,-27 Z"
   id="glyph221" />
   <glyph
   unicode="P"
   horiz-adv-x="980"
   d="M 371,569 L 371,0 185,0 185,1507 601,1507 C 795,1507 939,1466 1032,1385 1125,1303 1171,1193 1171,1055 1171,912 1120,795 1019,705 917,614 775,569 592,569 L 371,569 Z M 371,1349 L 371,726 557,726 C 710,726 818,756 882,815 945,874 977,952 977,1050 977,1148 946,1222 884,1273 822,1324 723,1349 587,1349 L 371,1349 Z"
   id="glyph223" />
   <glyph
   unicode="N"
   horiz-adv-x="1139"
   d="M 1333,0 L 1117,0 358,1308 358,0 185,0 185,1507 443,1507 1160,271 1160,1507 1333,1507 1333,0 Z"
   id="glyph225" />
   <glyph
   unicode="M"
   horiz-adv-x="1298"
   d="M 1516,0 L 1330,0 1330,1294 895,410 793,410 358,1294 358,0 185,0 185,1507 423,1507 850,640 1276,1507 1516,1507 1516,0 Z"
   id="glyph227" />
   <glyph
   unicode="K"
   horiz-adv-x="1139"
   d="M 1347,0 L 1102,0 510,675 371,532 371,0 185,0 185,1507 371,1507 371,726 1088,1507 1316,1507 650,796 1347,0 Z"
   id="glyph229" />
   <glyph
   unicode="F"
   horiz-adv-x="927"
   d="M 1136,1345 L 371,1345 371,895 1050,895 1050,733 371,733 371,0 185,0 185,1507 1136,1507 1136,1345 Z"
   id="glyph231" />
   <glyph
   unicode="C"
   horiz-adv-x="1218"
   d="M 814,-27 C 589,-27 412,41 285,177 157,313 93,505 93,752 93,995 158,1186 288,1325 417,1464 593,1534 815,1534 974,1534 1140,1489 1313,1399 L 1313,1180 1299,1180 C 1142,1311 977,1377 803,1377 644,1377 519,1322 426,1212 333,1101 287,948 287,752 287,557 334,405 429,296 523,186 648,131 805,131 890,131 970,145 1047,172 1124,199 1208,251 1299,330 L 1313,330 1313,110 C 1185,49 1086,11 1015,-4 944,-19 877,-27 814,-27 Z"
   id="glyph233" />
   <glyph
   unicode="B"
   horiz-adv-x="1112"
   d="M 185,0 L 185,1507 629,1507 C 697,1507 755,1506 803,1503 850,1500 899,1492 950,1477 1000,1462 1043,1440 1079,1411 1115,1381 1142,1346 1159,1306 1176,1266 1185,1220 1185,1169 1185,1036 1118,933 983,861 L 983,853 C 1085,832 1165,787 1222,719 1279,650 1308,565 1308,464 1308,321 1257,208 1154,125 1051,42 904,0 713,0 L 185,0 Z M 371,1349 L 371,891 640,891 C 770,891 861,912 913,954 965,996 991,1061 991,1148 991,1209 970,1257 929,1294 888,1331 784,1349 617,1349 L 371,1349 Z M 371,737 L 371,158 642,158 C 833,158 960,185 1022,238 1083,291 1114,362 1114,452 1114,511 1103,561 1080,603 1057,644 1022,677 974,701 925,725 831,737 692,737 L 371,737 Z"
   id="glyph235" />
   <glyph
   unicode="A"
   horiz-adv-x="1350"
   d="M 960,585 L 689,1328 419,585 960,585 Z M 1171,0 L 1016,430 362,430 207,0 18,0 576,1507 813,1507 1370,0 1171,0 Z"
   id="glyph237" />
   <glyph
   unicode="9"
   horiz-adv-x="1060"
   d="M 243,-6 L 243,171 255,171 C 311,144 376,131 451,131 759,131 928,309 959,666 826,586 703,546 591,546 439,546 319,588 231,673 142,757 98,872 98,1019 98,1170 147,1294 246,1391 345,1488 467,1537 614,1537 781,1537 913,1480 1009,1365 1104,1250 1152,1076 1152,845 1152,568 1089,353 963,200 837,47 656,-29 421,-29 352,-29 292,-21 243,-6 Z M 959,792 L 962,881 C 962,1044 932,1169 872,1256 812,1343 725,1386 612,1386 513,1386 434,1354 376,1291 318,1227 289,1139 289,1027 289,931 316,852 370,791 424,729 513,698 638,698 740,698 847,729 959,792 Z"
   id="glyph239" />
   <glyph
   unicode="8"
   horiz-adv-x="1033"
   d="M 386,799 L 386,811 C 227,898 147,1010 147,1148 147,1262 193,1356 285,1430 377,1504 494,1541 636,1541 783,1541 902,1506 991,1436 1080,1366 1125,1274 1125,1161 1125,1088 1103,1019 1059,955 1014,890 953,840 874,804 L 874,791 C 1068,708 1165,583 1165,417 1165,288 1115,180 1014,95 913,9 787,-34 636,-34 475,-34 347,7 251,90 155,172 107,280 107,413 107,587 200,716 386,799 Z M 940,1160 C 940,1232 912,1291 857,1337 802,1383 728,1406 635,1406 547,1406 475,1385 420,1342 364,1299 336,1242 336,1172 336,1095 371,1031 440,981 509,931 615,884 756,841 879,920 940,1027 940,1160 Z M 508,763 C 367,684 297,572 297,427 297,330 329,252 393,193 457,133 539,103 638,103 740,103 821,129 881,182 941,234 971,306 971,397 971,459 957,509 930,547 903,584 863,616 811,642 758,668 657,708 508,763 Z"
   id="glyph241" />
   <glyph
   unicode="7"
   horiz-adv-x="1007"
   d="M 1158,1298 L 482,0 281,0 1000,1345 139,1345 139,1507 1158,1507 1158,1298 Z"
   id="glyph243" />
   <glyph
   unicode="6"
   horiz-adv-x="1059"
   d="M 1031,1511 L 1031,1334 1019,1334 C 963,1361 898,1375 823,1375 676,1375 558,1328 470,1235 382,1141 331,1011 316,844 442,919 565,957 684,957 830,957 949,917 1040,836 1131,755 1176,638 1176,487 1176,336 1127,212 1028,115 929,18 807,-31 660,-31 490,-31 358,28 264,147 169,265 122,436 122,661 122,938 185,1153 312,1306 438,1459 618,1535 853,1535 924,1535 983,1527 1031,1511 Z M 316,716 C 313,661 312,628 312,617 312,458 343,336 405,250 467,163 553,120 662,120 763,120 842,152 899,215 956,278 985,366 985,479 985,573 958,651 904,712 850,773 760,804 635,804 526,804 420,775 316,716 Z"
   id="glyph245" />
   <glyph
   unicode="5"
   horiz-adv-x="953"
   d="M 172,57 L 172,257 188,257 C 318,172 453,130 594,130 702,130 789,161 854,223 919,284 951,369 951,478 951,675 816,774 545,774 468,774 365,761 237,734 L 237,1507 1132,1507 1132,1345 417,1345 417,918 C 505,927 564,931 595,931 774,931 910,892 1003,815 1096,738 1142,625 1142,477 1142,328 1092,206 992,111 891,16 760,-31 598,-31 441,-31 299,-2 172,57 Z"
   id="glyph247" />
   <glyph
   unicode="4"
   horiz-adv-x="1112"
   d="M 1188,434 L 967,434 967,0 787,0 787,434 62,434 62,644 795,1507 967,1507 967,582 1188,582 1188,434 Z M 787,582 L 787,1287 188,582 787,582 Z"
   id="glyph249" />
   <glyph
   unicode="3"
   horiz-adv-x="980"
   d="M 152,63 L 152,264 168,264 C 303,175 443,130 588,130 695,130 780,159 845,217 909,275 941,356 941,459 941,555 913,626 857,671 801,716 710,739 585,739 L 497,739 497,893 565,893 C 673,893 758,916 819,962 880,1008 911,1073 911,1156 911,1227 884,1281 831,1320 777,1358 703,1377 609,1377 474,1377 339,1333 206,1246 L 195,1246 195,1443 C 330,1506 469,1538 614,1538 769,1538 890,1506 975,1441 1060,1376 1102,1288 1102,1177 1102,1096 1074,1023 1017,959 960,895 889,854 804,837 L 804,821 C 1023,782 1133,655 1133,442 1133,304 1083,191 982,102 881,13 752,-31 593,-31 442,-31 295,0 152,63 Z"
   id="glyph251" />
   <glyph
   unicode="2"
   horiz-adv-x="1007"
   d="M 1154,0 L 146,0 146,195 C 253,287 373,394 506,516 639,638 737,745 802,838 867,931 899,1023 899,1116 899,1198 872,1262 818,1308 763,1354 689,1377 596,1377 459,1377 325,1334 193,1247 L 183,1247 183,1442 C 318,1506 457,1538 601,1538 753,1538 873,1501 960,1428 1047,1354 1091,1253 1091,1126 1091,1058 1080,993 1058,931 1035,869 1000,809 953,750 906,691 849,629 783,563 717,497 565,363 328,161 L 1154,161 1154,0 Z"
   id="glyph253" />
   <glyph
   unicode="1"
   horiz-adv-x="794"
   d="M 1068,0 L 266,0 266,138 580,138 580,1174 266,1174 266,1296 C 389,1297 476,1314 529,1349 582,1383 611,1437 618,1512 L 760,1512 760,138 1068,138 1068,0 Z"
   id="glyph255" />
   <glyph
   unicode="0"
   horiz-adv-x="1033"
   d="M 637,-31 C 460,-31 329,32 246,159 163,286 121,483 121,752 121,1021 163,1219 247,1346 330,1473 460,1537 637,1537 812,1537 942,1473 1026,1346 1110,1218 1152,1021 1152,754 1152,485 1110,287 1027,160 944,33 814,-31 637,-31 Z M 637,1384 C 523,1384 440,1339 389,1249 338,1158 312,993 312,752 312,513 338,349 389,258 440,167 523,122 637,122 751,122 834,167 885,258 936,349 961,514 961,754 961,989 936,1153 885,1246 834,1338 752,1384 637,1384 Z"
   id="glyph257" />
   <glyph
   unicode="/"
   horiz-adv-x="901"
   d="M 856,1574 L 132,-304 -29,-304 692,1574 856,1574 Z"
   id="glyph259" />
   <glyph
   unicode="-"
   horiz-adv-x="610"
   d="M 762,575 L 138,575 138,743 762,743 762,575 Z"
   id="glyph261" />
   <glyph
   unicode=","
   horiz-adv-x="398"
   d="M 554,273 L 272,-370 138,-370 314,273 554,273 Z"
   id="glyph263" />
   <glyph
   unicode=")"
   horiz-adv-x="583"
   d="M 346,-417 L 133,-417 133,-407 C 267,-288 374,-141 453,32 532,205 571,387 571,579 571,770 531,953 452,1127 373,1300 266,1446 133,1564 L 133,1574 346,1574 C 604,1273 733,941 733,579 733,392 703,220 643,61 582,-98 483,-257 346,-417 Z"
   id="glyph265" />
   <glyph
   unicode="("
   horiz-adv-x="583"
   d="M 767,-417 L 554,-417 C 418,-259 320,-100 259,59 198,218 167,392 167,579 167,941 296,1273 554,1574 L 767,1574 767,1564 C 634,1447 528,1302 449,1128 369,953 329,770 329,579 329,387 369,204 448,31 527,-143 634,-289 767,-407 L 767,-417 Z"
   id="glyph267" />
   <glyph
   unicode="&amp;"
   horiz-adv-x="1430"
   d="M 1555,0 L 1321,0 1088,230 C 952,56 789,-31 598,-31 459,-31 343,10 252,93 161,175 115,281 115,411 115,594 211,742 403,854 319,911 262,964 232,1014 202,1063 187,1122 187,1190 187,1286 225,1368 302,1436 379,1504 478,1538 601,1538 716,1538 809,1509 881,1451 952,1392 988,1318 988,1227 988,1048 886,922 681,851 L 1072,473 C 1087,514 1096,559 1101,608 1106,657 1108,759 1108,915 L 1291,915 1291,823 C 1291,659 1253,508 1178,370 L 1555,0 Z M 804,1208 C 804,1275 784,1328 744,1367 704,1406 653,1425 591,1425 527,1425 474,1403 433,1360 392,1317 371,1263 371,1200 371,1142 389,1092 424,1049 459,1006 516,962 593,917 734,969 804,1066 804,1208 Z M 998,317 L 507,793 C 448,765 400,722 363,663 326,604 308,536 308,461 308,358 339,276 400,214 461,151 544,120 649,120 793,120 909,186 998,317 Z"
   id="glyph269" />
   <glyph
   unicode=" "
   horiz-adv-x="688"
   id="glyph271" />
  </font>
 </defs>
 <defs
   id="defs313">
  <font
   id="EmbeddedFont_3"
   horiz-adv-x="2048"
   horiz-origin-x="0"
   horiz-origin-y="0"
   vert-origin-x="45"
   vert-origin-y="90"
   vert-adv-y="90">
   <font-face
   font-family="ＭＳ Ｐゴシック embedded"
   units-per-em="2048"
   font-weight="normal"
   font-style="normal"
   ascent="1746"
   descent="291"
   id="font-face276" />
   <missing-glyph
   horiz-adv-x="2048"
   d="M 0,0 L 2047,0 2047,2047 0,2047 0,0 Z"
   id="missing-glyph278" />
   <glyph
   unicode="～"
   horiz-adv-x="1615"
   d="M 1832,824 C 1773,744 1712,675 1648,616 1563,536 1461,496 1344,496 1253,496 1128,544 968,640 845,715 744,752 664,752 573,752 504,723 456,664 403,600 373,555 368,528 L 200,632 C 243,712 301,787 376,856 456,931 547,968 648,968 755,968 875,928 1008,848 1152,763 1272,720 1368,720 1437,720 1507,755 1576,824 1608,856 1640,901 1672,960 L 1832,824 Z"
   id="glyph280" />
   <glyph
   unicode="金"
   horiz-adv-x="1827"
   d="M 1392,1088 C 1269,1163 1144,1296 1016,1488 904,1307 789,1173 672,1088 L 1392,1088 Z M 936,56 L 936,576 264,576 264,728 936,728 936,936 624,936 624,1048 C 496,947 344,867 168,808 L 88,984 C 499,1117 779,1344 928,1664 L 1128,1640 C 1155,1635 1152,1619 1120,1592 1301,1336 1573,1152 1936,1040 L 1848,856 C 1693,909 1549,981 1416,1072 L 1416,936 1096,936 1096,728 1776,728 1776,576 1096,576 1096,56 1840,56 1840,-96 216,-96 216,56 936,56 Z M 616,96 C 563,219 509,323 456,408 L 616,488 C 675,403 728,301 776,184 L 616,96 Z M 1264,168 C 1312,264 1357,381 1400,520 L 1552,472 C 1621,456 1627,437 1568,416 1531,315 1485,213 1432,112 L 1264,168 Z"
   id="glyph282" />
   <glyph
   unicode="速"
   horiz-adv-x="1853"
   d="M 1000,-136 C 808,-136 629,-67 464,72 389,-8 304,-83 208,-152 L 104,16 C 205,64 296,117 376,176 L 376,696 120,696 120,848 536,848 536,200 C 669,77 827,16 1008,16 L 1952,16 1920,-136 1000,-136 Z M 336,1568 C 432,1499 517,1416 592,1320 L 456,1184 C 397,1275 317,1363 216,1448 L 336,1568 Z M 1344,664 C 1499,520 1696,403 1936,312 L 1856,152 C 1637,243 1464,355 1336,488 L 1336,72 1176,72 1176,464 C 1075,347 915,235 696,128 L 608,288 C 843,384 1029,509 1168,664 L 720,664 720,1176 1176,1176 1176,1312 664,1312 664,1464 1176,1464 1176,1672 1328,1672 C 1371,1667 1373,1651 1336,1624 L 1336,1464 1880,1464 1880,1312 1336,1312 1336,1176 1792,1176 1792,664 1344,664 Z M 1336,1024 L 1336,816 1632,816 1632,1024 1336,1024 Z M 880,1024 L 880,816 1176,816 1176,1024 880,1024 Z"
   id="glyph284" />
   <glyph
   unicode="種"
   horiz-adv-x="1879"
   d="M 848,1528 C 1227,1544 1509,1584 1696,1648 L 1792,1528 C 1808,1496 1795,1485 1752,1496 1656,1475 1552,1456 1440,1440 L 1440,1312 1888,1312 1888,1184 1440,1184 1440,1064 1808,1064 1808,432 1440,432 1440,304 1840,304 1840,176 1440,176 1440,0 1944,0 1944,-128 744,-128 744,0 1280,0 1280,176 880,176 880,304 1280,304 1280,432 1096,432 912,432 912,1064 1280,1064 1280,1184 816,1184 816,1312 1280,1312 1280,1424 C 1163,1413 1037,1405 904,1400 L 848,1528 Z M 544,-192 L 408,-192 408,616 C 349,477 275,347 184,224 L 72,368 C 237,571 347,781 400,1000 L 136,1000 136,1128 408,1128 408,1400 C 328,1384 253,1373 184,1368 L 136,1504 C 365,1536 547,1579 680,1632 L 760,1512 C 781,1480 771,1469 728,1480 664,1459 603,1443 544,1432 L 544,1128 792,1128 792,1000 544,1000 544,800 C 651,747 741,685 816,616 L 720,424 C 667,504 608,573 544,632 L 544,-192 Z M 1280,936 L 1048,936 1048,792 1280,792 1280,936 Z M 1280,696 L 1048,696 1048,560 1280,560 1280,696 Z M 1672,696 L 1440,696 1440,560 1672,560 1672,696 Z M 1440,936 L 1440,792 1672,792 1672,936 1440,936 Z"
   id="glyph286" />
   <glyph
   unicode="温"
   horiz-adv-x="1853"
   d="M 280,-80 C 280,-133 267,-149 240,-128 L 88,8 C 221,173 328,357 408,560 L 544,456 C 453,232 365,53 280,-80 Z M 888,1264 L 1544,1264 1544,1440 888,1440 888,1264 Z M 888,944 L 1544,944 1544,1136 888,1136 888,944 Z M 1704,1568 L 1704,816 728,816 728,1568 1704,1568 Z M 664,632 L 1784,632 1784,16 1944,16 1944,-136 504,-136 504,16 664,16 664,632 Z M 824,504 L 824,16 1000,16 1000,504 824,504 Z M 1136,16 L 1312,16 1312,504 1136,504 1136,16 Z M 1624,16 L 1624,504 1448,504 1448,16 1624,16 Z M 336,1560 C 443,1512 533,1448 608,1368 L 496,1224 C 427,1304 339,1373 232,1432 L 336,1560 Z M 408,760 C 333,845 248,915 152,968 L 256,1096 C 341,1069 432,1005 528,904 L 408,760 Z"
   id="glyph288" />
   <glyph
   unicode="海"
   horiz-adv-x="1827"
   d="M 1728,1112 L 1728,664 1936,664 1936,512 1728,512 1712,208 1880,208 1880,56 1704,56 1688,-64 C 1677,-139 1637,-176 1568,-176 L 1352,-176 1320,-24 1496,-24 C 1517,-24 1531,-13 1536,8 L 1544,56 816,56 800,-64 640,-64 704,512 512,512 512,664 712,664 736,1056 C 693,1008 651,965 608,928 L 488,1064 C 669,1219 800,1421 880,1672 L 1048,1616 C 1075,1605 1067,1592 1024,1576 L 968,1440 1872,1440 1872,1288 896,1288 C 859,1219 816,1160 768,1112 L 1728,1112 Z M 1296,512 L 1272,208 1552,208 1568,512 1296,512 Z M 896,960 L 872,664 1144,664 1152,960 896,960 Z M 1304,664 L 1568,664 1568,960 1312,960 1304,664 Z M 1136,512 L 864,512 840,208 1112,208 1136,512 Z M 96,-8 C 213,152 307,341 376,560 L 512,456 C 475,285 397,101 280,-96 285,-149 272,-163 240,-136 L 96,-8 Z M 392,752 C 307,827 211,893 104,952 L 216,1104 C 328,1051 424,987 504,912 L 392,752 Z M 472,1232 C 381,1312 283,1384 176,1448 L 304,1600 C 437,1525 539,1456 608,1392 L 472,1232 Z"
   id="glyph290" />
   <glyph
   unicode="流"
   horiz-adv-x="1853"
   d="M 424,1200 C 349,1280 267,1352 176,1416 L 296,1560 C 392,1501 475,1432 544,1352 L 424,1200 Z M 1296,1440 L 1888,1440 1888,1288 1216,1288 1032,984 1504,1008 1328,1144 1456,1224 C 1632,1123 1781,1003 1904,864 L 1768,752 1640,880 688,808 C 683,771 669,763 648,784 L 592,968 864,976 1008,1288 592,1288 592,1440 1112,1440 1112,1656 1288,1656 C 1341,1645 1344,1624 1296,1592 L 1296,1440 Z M 104,-24 C 216,157 315,357 400,576 L 544,480 C 459,235 371,37 280,-112 291,-144 283,-157 256,-152 L 104,-24 Z M 408,736 C 328,800 240,867 144,936 L 248,1088 C 360,1019 451,955 520,896 L 408,736 Z M 1272,-56 L 1112,-56 1112,704 1264,704 C 1307,699 1309,683 1272,656 L 1272,-56 Z M 1464,720 L 1616,720 C 1659,715 1661,699 1624,672 L 1624,72 C 1624,29 1643,8 1680,8 L 1728,8 C 1755,8 1771,27 1776,64 L 1792,192 1952,152 C 1947,83 1936,16 1920,-48 1904,-112 1864,-144 1800,-144 L 1592,-144 C 1507,-144 1464,-99 1464,-8 L 1464,720 Z M 912,336 C 912,112 792,-61 552,-184 L 440,-48 C 648,59 752,197 752,368 L 752,712 904,712 C 947,707 949,691 912,664 L 912,336 Z"
   id="glyph292" />
   <glyph
   unicode="水"
   horiz-adv-x="1853"
   d="M 1848,-32 C 1533,181 1291,491 1120,896 L 1120,-24 C 1120,-109 1077,-152 992,-152 L 800,-152 768,0 928,0 C 949,0 960,11 960,32 L 960,1640 1112,1640 C 1155,1635 1157,1619 1120,1592 L 1120,1360 C 1120,1243 1165,1104 1256,944 1379,1029 1515,1163 1664,1344 L 1808,1200 C 1835,1157 1819,1141 1760,1152 1632,1035 1488,920 1328,808 1483,536 1688,317 1944,152 L 1848,-32 Z M 848,1072 C 763,565 541,197 184,-32 L 96,136 C 389,301 581,597 672,1024 L 208,1024 208,1176 672,1176 720,1240 856,1144 C 893,1123 891,1099 848,1072 Z"
   id="glyph294" />
   <glyph
   unicode="材"
   horiz-adv-x="1853"
   d="M 1440,8 C 1461,8 1472,19 1472,40 L 1472,680 C 1344,472 1165,296 936,152 L 840,344 C 1128,504 1339,725 1472,1008 L 1472,1104 1024,1104 1024,1256 1472,1256 1472,1632 1624,1632 C 1667,1627 1669,1611 1632,1584 L 1632,1256 1920,1256 1920,1104 1632,1104 1632,-16 C 1632,-101 1589,-144 1504,-144 L 1336,-144 1304,8 1440,8 Z M 656,-168 L 496,-168 496,696 C 411,536 307,389 184,256 L 72,424 C 307,669 445,896 488,1104 L 152,1104 152,1256 496,1256 496,1632 648,1632 C 691,1627 693,1611 656,1584 L 656,1256 952,1256 952,1104 656,1104 656,896 C 805,832 923,760 1008,680 L 904,504 C 835,579 752,648 656,712 L 656,-168 Z"
   id="glyph296" />
   <glyph
   unicode="料"
   horiz-adv-x="1853"
   d="M 96,232 C 320,408 461,592 520,784 L 152,784 152,936 520,936 520,1648 672,1648 C 715,1643 717,1627 680,1600 L 680,936 1008,936 1008,784 680,784 680,680 C 813,600 923,512 1008,416 L 912,256 C 827,357 749,435 680,488 L 680,-176 520,-176 520,440 C 451,312 344,189 200,72 L 96,232 Z M 744,1064 C 797,1181 848,1325 896,1496 L 1064,1440 C 1091,1419 1085,1408 1048,1408 995,1248 944,1112 896,1000 L 744,1064 Z M 304,1448 C 379,1320 429,1197 456,1080 L 296,1016 C 269,1123 221,1245 152,1384 L 304,1448 Z M 1688,1624 C 1731,1619 1733,1603 1696,1576 L 1696,560 1912,616 1960,448 1696,392 1696,-176 1536,-176 1536,352 1104,256 1064,424 1536,520 1536,1624 1688,1624 Z M 1232,1392 C 1333,1328 1413,1264 1472,1200 L 1360,1056 C 1312,1104 1235,1171 1128,1256 L 1232,1392 Z M 1208,952 C 1288,904 1368,840 1448,760 L 1336,616 C 1272,685 1195,752 1104,816 L 1208,952 Z"
   id="glyph298" />
   <glyph
   unicode="度"
   horiz-adv-x="1801"
   d="M 1872,-184 C 1616,-152 1389,-85 1192,16 1005,-96 781,-165 520,-192 L 456,-24 C 696,-3 896,48 1056,128 971,213 893,304 824,400 L 600,400 600,528 1536,528 1560,552 1680,456 C 1701,424 1691,411 1648,416 1557,309 1448,211 1320,120 1507,56 1704,16 1912,0 L 1872,-184 Z M 1144,1448 L 1864,1448 1864,1296 448,1296 448,592 C 448,293 381,43 248,-160 L 104,-40 C 227,125 288,347 288,624 L 288,1448 960,1448 960,1656 1136,1656 C 1179,1651 1181,1635 1144,1608 L 1144,1448 Z M 1192,208 C 1256,251 1331,315 1416,400 L 1000,400 C 1053,336 1117,272 1192,208 Z M 1480,640 L 1320,640 1320,688 976,688 976,632 816,632 816,952 496,952 496,1080 816,1080 816,1232 968,1232 C 1011,1227 1013,1211 976,1184 L 976,1080 1320,1080 1320,1248 1472,1248 C 1515,1243 1517,1227 1480,1200 L 1480,1080 1864,1080 1864,952 1480,952 1480,640 Z M 1320,952 L 976,952 976,816 1320,816 1320,952 Z"
   id="glyph300" />
   <glyph
   unicode="属"
   horiz-adv-x="1774"
   d="M 1424,304 L 1256,304 1256,152 1448,160 1368,256 1424,304 Z M 1752,304 L 1488,304 C 1557,229 1619,149 1672,64 L 1552,-8 1520,56 C 1291,29 1064,3 840,-24 835,-77 819,-77 792,-24 L 760,128 1096,136 1096,304 640,304 640,-184 504,-184 504,432 1096,432 1096,520 856,520 624,520 624,888 1096,888 1096,1016 C 920,1011 741,1008 560,1008 L 528,1120 C 1088,1120 1475,1141 1688,1184 L 1760,1064 C 1776,1027 1757,1019 1704,1040 1571,1035 1421,1029 1256,1024 L 1256,888 1728,888 1728,520 1256,520 1256,432 1888,432 1888,-64 C 1888,-139 1851,-176 1776,-176 L 1600,-176 1576,-24 1720,-24 C 1741,-24 1752,-13 1752,8 L 1752,304 Z M 424,448 C 424,187 349,-19 200,-168 L 80,-32 C 203,91 264,251 264,448 L 264,1608 1800,1608 1800,1232 424,1232 424,448 Z M 424,1480 L 424,1360 1640,1360 1640,1480 424,1480 Z M 760,760 L 760,648 1096,648 1096,760 760,760 Z M 1256,760 L 1256,648 1592,648 1592,760 1256,760 Z"
   id="glyph302" />
   <glyph
   unicode="各"
   horiz-adv-x="1800"
   d="M 1032,1096 C 1128,1181 1203,1272 1256,1368 L 800,1368 C 821,1304 899,1213 1032,1096 Z M 1392,1552 L 1528,1448 1472,1408 C 1397,1275 1291,1139 1152,1000 1333,861 1595,757 1936,688 L 1872,504 C 1493,605 1213,736 1032,896 893,779 733,675 552,584 L 1560,584 1560,-160 1400,-160 1400,-96 688,-96 688,-184 528,-184 528,568 C 427,515 317,469 200,432 L 120,616 C 387,680 648,808 904,1000 781,1128 707,1221 680,1280 563,1099 411,963 224,872 L 152,1032 C 440,1181 624,1400 704,1688 L 848,1640 C 880,1624 877,1611 840,1600 L 792,1496 1344,1496 1392,1552 Z M 1400,56 L 1400,432 688,432 688,56 1400,56 Z"
   id="glyph304" />
   <glyph
   unicode="中"
   horiz-adv-x="1536"
   d="M 936,584 L 936,1104 416,1104 416,584 936,584 Z M 936,1624 L 1088,1624 C 1131,1619 1133,1603 1096,1576 L 1096,1256 1792,1256 1792,376 1632,376 1632,432 1096,432 1096,-168 936,-168 936,432 416,432 416,328 256,328 256,1256 936,1256 936,1624 Z M 1632,584 L 1632,1104 1096,1104 1096,584 1632,584 Z"
   id="glyph306" />
   <glyph
   unicode="、"
   horiz-adv-x="530"
   d="M 600,-192 C 472,-48 339,69 200,160 L 320,320 C 491,219 632,104 744,-24 L 600,-192 Z"
   id="glyph308" />
   <glyph
   unicode=" "
   horiz-adv-x="609"
   id="glyph310" />
  </font>
</defs>
</svg>
